<?xml version="1.0" standalone="no"?>
<!DOCTYPE svg PUBLIC "-//W3C//DTD SVG 1.1//EN" "http://www.w3.org/Graphics/SVG/1.1/DTD/svg11.dtd">
<svg xmlns="http://www.w3.org/2000/svg">
<metadata>IconScout</metadata>
<defs>
<font id="unicons-4" horiz-adv-x="1000" >
<font-face font-family="unicons-4" font-weight="400" font-stretch="normal" units-per-em="1000" ascent="850" descent="-150" />
<missing-glyph horiz-adv-x="1000" />
<glyph glyph-name="dna" unicode="&#xe8f0;" d="M383 278a42 42 0 0 1-58 2 466 466 0 0 1-158-347 42 42 0 0 1 83 0 381 381 0 0 0 131 286 42 42 0 0 1 2 59z m424-193a452 452 0 0 1-67 125 596 596 0 0 1-154 140c93 60 247 192 247 417a42 42 0 0 1-83 0c0-225-191-341-250-371a559 559 0 0 0-112 79h112a42 42 0 0 1 0 83h-185a391 391 0 0 0-42 84h352a42 42 0 0 1 0 83h-373a339 339 0 0 0-2 42 42 42 0 0 1-83 0c0-316 304-450 317-455h0a539 539 0 0 0 128-87h-112a42 42 0 0 1 0-83h185a378 378 0 0 0 41-84h-351a42 42 0 0 1 0-83h373a344 344 0 0 0 2-42 42 42 0 0 1 83 0 438 438 0 0 1-9 92 385 385 0 0 1-17 60z" horiz-adv-x="1000" />

<glyph glyph-name="sign-alt" unicode="&#xe8f1;" d="M908 355l-84 104a42 42 0 0 1-32 16h-250v250a42 42 0 0 1-84 0v-42h-250a42 42 0 0 1-32-15l-84-105a42 42 0 0 1 0-51l84-104a42 42 0 0 1 32-16h250v-375h-83a42 42 0 0 1 0-84h250a42 42 0 0 1 0 84h-83v166h250a42 42 0 0 1 32 16l84 104a42 42 0 0 1 0 52z m-450 120h-230l-50 63 50 62h230z m314-208h-230v125h230l50-63z" horiz-adv-x="1000" />

<glyph glyph-name="presentation-lines-alt" unicode="&#xe8f2;" d="M424 410a42 42 0 0 1 30-18 42 42 0 0 1 34 12l47 47 55-83a42 42 0 0 1 35-18 39 39 0 0 1 23 7 42 42 0 0 1 12 58l-84 125a42 42 0 0 1-30 18 42 42 0 0 1-34-12l-47-47-55 83a42 42 0 1 1-70-46z m451-143h-42v416h42a42 42 0 0 1 0 84h-750a42 42 0 0 1 0-84h42v-416h-42a42 42 0 0 1 0-84h333v-48l-189-125a42 42 0 0 1 23-77 39 39 0 0 1 23 7l143 95v-60a42 42 0 0 1 84 0v60l143-95a39 39 0 0 1 23-7 42 42 0 0 1 23 77l-189 125v48h333a42 42 0 0 1 0 84z m-125 0h-500v416h500z" horiz-adv-x="1000" />

<glyph glyph-name="atom" unicode="&#xe8f3;" d="M500 392a42 42 0 1 1 42-42 42 42 0 0 1-42 42z m318-42l4 6c56 77 70 149 39 202s-100 78-194 68l-8 0c-38 87-94 141-159 141s-121-54-159-142l-8 1c-94 10-163-14-194-68s-17-125 39-202l5-6-5-6c-56-77-70-149-39-202 28-46 81-70 153-70 13 0 26 0 41 2l8 0c38-86 94-141 159-141s121 54 159 142l7 0c14 0 28-2 42-2 74 0 128 24 154 70 31 54 18 125-39 202z m-607 167c11 18 42 28 84 28l20 0a616 616 0 0 1-15-78 625 625 0 0 1-60-52c-32 42-41 81-29 102z m0-334c-12 21 0 60 28 103a625 625 0 0 1 61-52 623 623 0 0 1 14-78c-51-3-91 7-103 27z m289 500c23 0 51-27 75-76a733 733 0 0 1-75-26 733 733 0 0 1-75 26c24 49 52 76 75 76z m0-666c-23 0-51 27-75 76a733 733 0 0 1 75 26 733 733 0 0 1 75-26c-24-49-52-76-75-76z m122 263c-19-14-39-26-59-38s-42-23-63-33q-31 15-62 33c-21 12-42 24-60 38-3 22-3 45-3 70s0 48 3 70c19 14 39 26 60 38s41 23 62 33q31-15 63-33c20-12 41-24 59-38 0-22 3-45 3-70s0-48-3-70z m167-97c-12-20-51-31-103-27a623 623 0 0 1 14 78 625 625 0 0 1 61 52c31-43 40-82 28-103z m-28 231a625 625 0 0 1-61 52 616 616 0 0 1-14 78l20 0c42 0 72-10 84-29s2-58-29-101z" horiz-adv-x="1000" />

<glyph glyph-name="flask" unicode="&#xe8f4;" d="M838 121l-213 365v197h42a42 42 0 0 1 0 84h-334a42 42 0 0 1 0-84h42v-197l-213-365a125 125 0 0 1 108-188h458a125 125 0 0 1 108 188z m-385 334a42 42 0 0 1 5 20v208h84v-208a42 42 0 0 1 6-21l35-62h-166z m313-417a42 42 0 0 0-36-21h-458a42 42 0 0 0-36 21 42 42 0 0 0 0 42l132 228h265l133-229a42 42 0 0 0 0-41z m-349 187a42 42 0 1 1 41-42 42 42 0 0 1-41 42z m166-42a42 42 0 1 1 42-41 42 42 0 0 1-42 41z" horiz-adv-x="1000" />

<glyph glyph-name="diary" unicode="&#xe8f5;" d="M708 767h-500a42 42 0 0 1-41-42v-667a42 42 0 0 1 41-41h42v-42a42 42 0 0 1 42-42h0a42 42 0 0 1 41 42v42h375a125 125 0 0 1 125 125v500a125 125 0 0 1-125 125z m-125-667h-333v583h333z m167 42a42 42 0 0 0-42-42h-41v583h41a42 42 0 0 0 42-41z" horiz-adv-x="1000" />

<glyph glyph-name="presentation-times" unicode="&#xe8f6;" d="M387 362a42 42 0 0 1 59 0l54 54 54-54a42 42 0 0 1 59 0 42 42 0 0 1 0 59l-54 54 54 54a42 42 0 1 1-59 59l-54-54-54 54a42 42 0 0 1-59-59l54-54-54-54a42 42 0 0 1 0-59z m488-95h-42v416h42a42 42 0 0 1 0 84h-750a42 42 0 0 1 0-84h42v-416h-42a42 42 0 0 1 0-84h333v-48l-189-125a42 42 0 0 1 23-77 39 39 0 0 1 23 7l143 95v-60a42 42 0 0 1 84 0v60l143-95a39 39 0 0 1 23-7 42 42 0 0 1 23 77l-189 125v48h333a42 42 0 0 1 0 84z m-125 0h-500v416h500z" horiz-adv-x="1000" />

<glyph glyph-name="diary-alt" unicode="&#xe8f7;" d="M708 767h-500a42 42 0 0 1-41-42v-750a42 42 0 0 1 41-42h500a125 125 0 0 1 125 125v584a125 125 0 0 1-125 125z m-375-750h-83v666h83z m417 41a42 42 0 0 0-42-41h-291v666h291a42 42 0 0 0 42-41z" horiz-adv-x="1000" />

<glyph glyph-name="presentation-plus" unicode="&#xe8f8;" d="M875 267h-42v416h42a42 42 0 0 1 0 84h-750a42 42 0 0 1 0-84h42v-416h-42a42 42 0 0 1 0-84h333v-48l-189-125a42 42 0 0 1 23-77 39 39 0 0 1 23 7l143 95v-60a42 42 0 0 1 84 0v60l143-95a39 39 0 0 1 23-7 42 42 0 0 1 23 77l-189 125v48h333a42 42 0 0 1 0 84z m-125 0h-500v416h500z m-333 166h41v-41a42 42 0 0 1 84 0v41h41a42 42 0 0 1 0 84h-41v41a42 42 0 0 1-84 0v-41h-41a42 42 0 0 1 0-84z" horiz-adv-x="1000" />

<glyph glyph-name="presentation-minus" unicode="&#xe8f9;" d="M417 433h166a42 42 0 0 1 0 84h-166a42 42 0 0 1 0-84z m458-166h-42v416h42a42 42 0 0 1 0 84h-750a42 42 0 0 1 0-84h42v-416h-42a42 42 0 0 1 0-84h333v-48l-189-125a42 42 0 0 1 23-77 39 39 0 0 1 23 7l143 95v-60a42 42 0 0 1 84 0v60l143-95a39 39 0 0 1 23-7 42 42 0 0 1 23 77l-189 125v48h333a42 42 0 0 1 0 84z m-125 0h-500v416h500z" horiz-adv-x="1000" />

<glyph glyph-name="presentation-edit" unicode="&#xe8fa;" d="M392 308h101a42 42 0 0 1 30 12l149 150a42 42 0 0 1 0 58l-101 100a42 42 0 0 1-59 0l-149-149a42 42 0 0 1-13-29v-100a42 42 0 0 1 42-42z m42 125l108 107 41-42-107-106h-42z m441-166h-42v416h42a42 42 0 0 1 0 84h-750a42 42 0 0 1 0-84h42v-416h-42a42 42 0 0 1 0-84h333v-48l-189-125a42 42 0 0 1 23-77 39 39 0 0 1 23 7l143 95v-60a42 42 0 0 1 84 0v60l143-95a39 39 0 0 1 23-7 42 42 0 0 1 23 77l-189 125v48h333a42 42 0 0 1 0 84z m-125 0h-500v416h500z" horiz-adv-x="1000" />

<glyph glyph-name="backpack" unicode="&#xe8fb;" d="M542 433h-84a42 42 0 0 1 0-83h84a42 42 0 0 1 0 83z m208 0a167 167 0 0 1-125 161v48a125 125 0 0 1-250 0v-48a167 167 0 0 1-125-161 167 167 0 0 1-167-166v-125a125 125 0 0 1 125-125h50a125 125 0 0 1 117-84h250a125 125 0 0 1 118 84h49a125 125 0 0 1 125 125v125a167 167 0 0 1-167 166z m-500-333h-42a42 42 0 0 0-41 42v125a83 83 0 0 0 83 83z m208 542a42 42 0 0 0 84 0v-42h-84z m209-584a42 42 0 0 0-42-41h-250a42 42 0 0 0-42 41v42a83 83 0 0 0 84 83h166a83 83 0 0 0 84-83z m0 185a163 163 0 0 1-84 24h-166a163 163 0 0 1-84-24v190a83 83 0 0 0 84 84h166a83 83 0 0 0 84-84z m166-101a42 42 0 0 0-41-42h-42v250a83 83 0 0 0 83-83z" horiz-adv-x="1000" />

<glyph glyph-name="notes" unicode="&#xe8fc;" d="M667 267h-334a42 42 0 0 1 0-84h334a42 42 0 0 1 0 84z m0 166h-250a42 42 0 0 1 0-83h250a42 42 0 0 1 0 83z m166 250h-125v42a42 42 0 0 1-83 0v-42h-83v42a42 42 0 0 1-84 0v-42h-83v42a42 42 0 0 1-83 0v-42h-125a42 42 0 0 1-42-41v-584a125 125 0 0 1 125-125h500a125 125 0 0 1 125 125v584a42 42 0 0 1-42 41z m-41-625a42 42 0 0 0-42-41h-500a42 42 0 0 0-42 41v542h84v-42a42 42 0 0 1 83 0v42h83v-42a42 42 0 0 1 84 0v42h83v-42a42 42 0 0 1 83 0v42h84z" horiz-adv-x="1000" />

<glyph glyph-name="location-arrow-alt" unicode="&#xe8fd;" d="M903 115l-291 583a125 125 0 0 1-224 0l-291-583a125 125 0 0 1 162-170l224 100h0a44 44 0 0 0 34 0l224-100a125 125 0 0 1 162 170z m-83-84a42 42 0 0 0-47-9l-224 100a125 125 0 0 1-102 0l-222-101a42 42 0 0 0-54 56l292 583a42 42 0 0 0 74 0l292-583a42 42 0 0 0-7-47z" horiz-adv-x="1000" />

<glyph glyph-name="book-alt" unicode="&#xe8fe;" d="M750 767h-417a167 167 0 0 1-166-167v-500a167 167 0 0 1 166-167h417a83 83 0 0 1 83 84v666a83 83 0 0 1-83 84z m-500-167a83 83 0 0 0 83 83h417v-416h-417a163 163 0 0 1-83-24z m83-583a83 83 0 0 0 0 166h417v-166z m84 500h166a42 42 0 0 1 0 83h-166a42 42 0 0 1 0-83z" horiz-adv-x="1000" />

<glyph glyph-name="book" unicode="&#xe8ff;" d="M625 600h-250a42 42 0 0 1-42-42v-166a42 42 0 0 1 42-42h250a42 42 0 0 1 42 42v166a42 42 0 0 1-42 42z m-42-167h-166v84h166z m125 334h-500a42 42 0 0 1-41-42v-750a42 42 0 0 1 41-42h500a125 125 0 0 1 125 125v584a125 125 0 0 1-125 125z m42-709a42 42 0 0 0-42-41h-458v666h458a42 42 0 0 0 42-41z" horiz-adv-x="1000" />

<glyph glyph-name="medal" unicode="&#xe900;" d="M891 610a42 42 0 0 1-20 25l-216 125a42 42 0 0 1-58-15l-97-169-97 169a42 42 0 0 1-58 15l-216-125a42 42 0 0 1-20-25 42 42 0 0 1 4-31l167-285a246 246 0 0 1-30-111 250 250 0 1 1 473 114l162 281a42 42 0 0 1 6 32z m-683-26l145 84 134-235a248 248 0 0 1-154-65z m292-567a167 167 0 0 0-167 166 167 167 0 0 0 167 167 167 167 0 1 0 0-333z m167 352a246 246 0 0 1-78 48l-41 76 101 175 144-84z" horiz-adv-x="1000" />

<glyph glyph-name="award" unicode="&#xe901;" d="M870 131l-113 195a288 288 0 0 1 35 139 292 292 0 0 1-584 0 288 288 0 0 1 35-139l-113-195a42 42 0 0 1 37-62l119 0 61-103a42 42 0 0 1 8-9 42 42 0 0 1 28-12h6a42 42 0 0 1 31 21l80 138 80-139a42 42 0 0 1 31-20h6a42 42 0 0 1 29 11 36 36 0 0 1 7 9l61 103 119 0a42 42 0 0 1 37 20 42 42 0 0 1 0 43z m-487-63l-37 62a42 42 0 0 1-36 20l-72 0 60 103a292 292 0 0 1 149-76z m117 188a208 208 0 1 0 208 209 208 208 0 0 0-208-209z m190-106a42 42 0 0 1-36-20l-37-62-63 110a294 294 0 0 1 148 77l60-104z" horiz-adv-x="1000" />

<glyph glyph-name="flask-potion" unicode="&#xe902;" d="M789 364a18 18 0 0 1 0 4 308 308 0 0 1-164 165v150h42a42 42 0 0 1 0 84h-334a42 42 0 0 1 0-84h42v-150a308 308 0 0 1-162-167 18 18 0 0 1 0-4 313 313 0 1 1 577 0z m-359 100a42 42 0 0 1 28 40v179h84v-179a42 42 0 0 1 28-40 226 226 0 0 0 106-72h-352a226 226 0 0 0 106 72z m70-447a230 230 0 0 0-229 229 222 222 0 0 0 9 62h440a222 222 0 0 0 9-62 230 230 0 0 0-229-229z m83 166a42 42 0 1 1 42-41 42 42 0 0 1-42 41z m-166 42a42 42 0 1 1 41-42 42 42 0 0 1-41 42z" horiz-adv-x="1000" />

<glyph glyph-name="bell-school" unicode="&#xe903;" d="M875 517a83 83 0 1 1-95-84 187 187 0 0 0-125-243 125 125 0 0 1-54 59 292 292 0 1 1-454 0 125 125 0 0 1-64-107v-42a125 125 0 0 1 125-125h334a125 125 0 0 1 125 125v8a270 270 0 0 1 191 358 83 83 0 0 1 17 51z m-292-417a42 42 0 0 0-41-42h-334a42 42 0 0 0-41 42v42a42 42 0 0 0 41 41h17a289 289 0 0 1 300 0h17a42 42 0 0 0 41-41z m-208 125a208 208 0 1 0 208 208 208 208 0 0 0-208-208z m0 250a42 42 0 1 1 42-42 42 42 0 0 1-42 42z" horiz-adv-x="1000" />

<glyph glyph-name="podium" unicode="&#xe904;" d="M825 553a42 42 0 0 1-33 16h-459v21a83 83 0 0 0 61 80 63 63 0 0 1 42-18h42a63 63 0 0 1 0 125h-42a62 62 0 0 1-49-24 167 167 0 0 1-137-163v-21h-42a42 42 0 0 1-33-16 42 42 0 0 1-8-36l26-104a125 125 0 0 1 103-93l32-291h-36a42 42 0 0 1 0-84h416a42 42 0 0 1 0 84h-36l32 291a125 125 0 0 1 102 93l27 104a42 42 0 0 1-8 36z m-237-526h-175l-33 292h240z m137 406a42 42 0 0 0-41-31h-369a42 42 0 0 0-42 31l-11 52h476z" horiz-adv-x="1000" />

<glyph glyph-name="graduation-cap" unicode="&#xe905;" d="M895 425l-41 23h0l-375 209-5 0a44 44 0 0 1-8 2l-8 0-7 0a49 49 0 0 1-9-2l-4 0-375-209a42 42 0 0 1 0-72l104-58v-197a125 125 0 0 1 125-125h333a125 125 0 0 1 125 125v197l83 47v-119a42 42 0 0 1 84 0v143a42 42 0 0 1-22 36z m-228-304a42 42 0 0 0-42-42h-333a42 42 0 0 0-42 42v151l188-104 6-3 4 0a42 42 0 0 1 10 0h0a42 42 0 0 1 11 0l4 0a20 20 0 0 1 6 3l188 104z m-209 131l-289 161 289 160 290-160z" horiz-adv-x="1000" />

<glyph glyph-name="medical-square" unicode="&#xe906;" d="M792 767h-584a125 125 0 0 1-125-125v-584a125 125 0 0 1 125-125h584a125 125 0 0 1 125 125v584a125 125 0 0 1-125 125z m41-709a42 42 0 0 0-41-41h-584a42 42 0 0 0-41 41v584a42 42 0 0 0 41 41h584a42 42 0 0 0 41-41z m-125 417h-83v83a42 42 0 0 1-42 42h-166a42 42 0 0 1-42-42v-83h-83a42 42 0 0 1-42-42v-166a42 42 0 0 1 42-42h83v-83a42 42 0 0 1 42-42h166a42 42 0 0 1 42 42v83h83a42 42 0 0 1 42 42v166a42 42 0 0 1-42 42z m-41-167h-84a42 42 0 0 1-41-41v-84h-84v84a42 42 0 0 1-41 41h-84v84h84a42 42 0 0 1 41 41v84h84v-84a42 42 0 0 1 41-41h84z" horiz-adv-x="1000" />

<glyph glyph-name="ambulance" unicode="&#xe907;" d="M438 454h-42v42a42 42 0 0 1-83 0v-42h-42a42 42 0 0 1 0-83h42v-42a42 42 0 0 1 83 0v42h42a42 42 0 0 1 0 83z m517-89l-2 4a25 25 0 0 1-3 6l-100 133a125 125 0 0 1-100 50h-83v42a125 125 0 0 1-125 125h-375a125 125 0 0 1-125-125v-458a42 42 0 0 1 41-42h42a125 125 0 0 1 250 0h250a125 125 0 0 1 250 0h42a42 42 0 0 1 41 42v208a42 42 0 0 1-3 15z m-705-307a42 42 0 1 0 42 42 42 42 0 0 0-42-42z m333 125h-240a125 125 0 0 1-185 0h-33v417a42 42 0 0 0 42 42h375a42 42 0 0 0 41-42z m84 292h83a42 42 0 0 0 33-17l50-66h-166z m83-417a42 42 0 1 0 42 42 42 42 0 0 0-42-42z m125 125h-32a125 125 0 0 1-176 10v115h208z" horiz-adv-x="1000" />

<glyph glyph-name="medical-square-full" unicode="&#xe908;" d="M875 767h-750a42 42 0 0 1-42-42v-750a42 42 0 0 1 42-42h750a42 42 0 0 1 42 42v750a42 42 0 0 1-42 42z m-42-750h-666v666h666z m-541 217h83v-84a42 42 0 0 1 42-41h166a42 42 0 0 1 42 41v84h83a42 42 0 0 1 42 41v167a42 42 0 0 1-42 42h-83v83a42 42 0 0 1-42 42h-166a42 42 0 0 1-42-42v-83h-83a42 42 0 0 1-42-42v-167a42 42 0 0 1 42-41z m41 166h84a42 42 0 0 1 41 42v83h84v-83a42 42 0 0 1 41-42h84v-83h-84a42 42 0 0 1-41-42v-83h-84v83a42 42 0 0 1-41 42h-84z" horiz-adv-x="1000" />

<glyph glyph-name="cell" unicode="&#xe909;" d="M895 653l-187 107a42 42 0 0 1-41 0l-167-95-167 95a42 42 0 0 1-41 0l-187-107a42 42 0 0 1-22-36v-214a42 42 0 0 1 22-36l166-94v-190a42 42 0 0 1 22-36l187-107a42 42 0 0 1 42 0l186 107a42 42 0 0 1 22 36v190l166 94a42 42 0 0 1 21 36v214a42 42 0 0 1-22 36z m-728-225v166l146 84 145-84v-166l-145-84z m479-320l-146-84-146 84v166l146 83 146-83z m187 320l-145-84-146 84v166l146 84 145-84z" horiz-adv-x="1000" />

<glyph glyph-name="band-aid" unicode="&#xe90a;" d="M368 380a42 42 0 0 1 0-60 42 42 0 0 1 58 0 42 42 0 0 1 0 60 42 42 0 0 1-58 0z m102-104a42 42 0 0 1 0-58 42 42 0 0 1 60 0 42 42 0 0 1 0 58 42 42 0 0 1-60 0z m375 417a250 250 0 0 1-345 9 250 250 0 0 1-343-8h0a250 250 0 0 1-8-344 250 250 0 0 1 184-417 247 247 0 0 1 167 65 250 250 0 0 1 344 8 250 250 0 0 1 7 344 250 250 0 0 1-7 344z m-60-58a167 167 0 0 0 7-225l-232 232a170 170 0 0 0 225-7z m-570-570a167 167 0 0 0-7 225l234-233a170 170 0 0 0-227 8z m570 0a170 170 0 0 0-235 0l-334 334a167 167 0 0 0 0 235h0a167 167 0 0 0 235 0l334-334a167 167 0 0 0 0-235z m-211 315a42 42 0 0 1 0-60 42 42 0 0 1 59 0 42 42 0 0 1 0 60 42 42 0 0 1-59 0z m-104 103a42 42 0 0 1 0-59 42 42 0 0 1 60 0 42 42 0 0 1 0 59 42 42 0 0 1-60 0z" horiz-adv-x="1000" />

<glyph glyph-name="lightbulb-alt" unicode="&#xe90b;" d="M712 733a333 333 0 0 1-278 69 333 333 0 0 1-262-264 336 336 0 0 1 72-277 189 189 0 0 0 48-119v-125a125 125 0 0 1 125-125h166a125 125 0 0 1 125 125v117a215 215 0 0 0 51 133 333 333 0 0 1-47 466z m-87-716a42 42 0 0 0-42-42h-166a42 42 0 0 0-42 42v41h250z m70 301a297 297 0 0 1-70-176h-83v125a42 42 0 0 1-84 0v-125h-83a271 271 0 0 1-67 173 250 250 0 0 0 142 405 250 250 0 0 0 300-245 245 245 0 0 0-55-157z" horiz-adv-x="1000" />

<glyph glyph-name="wheelchair-alt" unicode="&#xe90c;" d="M833 176v7a125 125 0 0 1-83 118v257h42a42 42 0 0 1 0 84h-500a125 125 0 0 1-125 125h-42a42 42 0 0 1 0-84h42a42 42 0 0 0 41-41v-309a208 208 0 1 1 292-191 206 206 0 0 1-17 83h225a42 42 0 0 0 42-42v-7a125 125 0 1 1 83 0z m-541-159a125 125 0 1 0 125 125 125 125 0 0 0-125-125z m375 291h-250a205 205 0 0 1-125 42v42h375z m0 167h-375v83h375z m125-458a42 42 0 1 0 41 41 42 42 0 0 0-41-41z m-500 166a42 42 0 1 1 41-41 42 42 0 0 1-41 41z" horiz-adv-x="1000" />

<glyph glyph-name="thermometer" unicode="&#xe90d;" d="M679 588l-292-292a42 42 0 0 1 0-59 42 42 0 0 1 59 0l292 292a42 42 0 1 1-59 59z m177 118a208 208 0 0 1-295 0l-341-343a42 42 0 0 1-12-29v-216l-113-113a42 42 0 0 1 0-60 42 42 0 0 1 60 0l113 113h216a42 42 0 0 1 29 12l343 341a208 208 0 0 1 0 295z m-59-236l-330-328h-175v175l328 330a125 125 0 0 0 177-177z" horiz-adv-x="1000" />

<glyph glyph-name="abacus" unicode="&#xe90e;" d="M875 767a42 42 0 0 1-42-42v-125h-166v42a42 42 0 0 1-84 0v-42h-83v42a42 42 0 0 1-83 0v-42h-84v42a42 42 0 0 1-83 0v-42h-83v125a42 42 0 0 1-84 0v-667a125 125 0 0 1 125-125h584a125 125 0 0 1 125 125v667a42 42 0 0 1-42 42z m-42-709a42 42 0 0 0-41-41h-584a42 42 0 0 0-41 41v125h83v-41a42 42 0 0 1 83 0v41h84v-41a42 42 0 0 1 83 0v41h167v-41a42 42 0 0 1 83 0v41h83z m0 209h-83v41a42 42 0 0 1-83 0v-41h-167v41a42 42 0 0 1-83 0v-41h-84v41a42 42 0 0 1-83 0v-41h-83v250h83v-42a42 42 0 0 1 83 0v42h84v-42a42 42 0 0 1 83 0v42h83v-42a42 42 0 0 1 84 0v42h166z" horiz-adv-x="1000" />

<glyph glyph-name="syringe" unicode="&#xe90f;" d="M905 755a42 42 0 0 1-60 0l-88-89-29 29a42 42 0 0 1-59 0l-59-58-30 29a42 42 0 0 1-59 0l-323-324-31 29a42 42 0 0 1-58-58l147-148-72-72-29 30a42 42 0 0 1-60-60l118-118a42 42 0 0 1 30-12 42 42 0 0 1 29 12 42 42 0 0 1 0 60l-29 29 72 72 147-147a42 42 0 0 1 30-12 42 42 0 0 1 29 71l-29 30 324 323a42 42 0 0 1 0 59l-29 30 58 57a42 42 0 0 1 0 58l-29 30 89 88a42 42 0 0 1 0 62z m-590-530l-59 58 59 59 60-59z m118-118l-58 58 58 60 59-59z m118 118l-176 176 177 177 29-30h0l147-147z m177 292l-59 61 29 29 30-29h0l29-29z" horiz-adv-x="1000" />

<glyph glyph-name="tablets" unicode="&#xe910;" d="M856 706a208 208 0 1 1 0-295 208 208 0 0 1 0 295z m-236-59a125 125 0 0 0 88 36 125 125 0 0 0 54-12l-167-167a125 125 0 0 0 25 143z m177-177a125 125 0 0 0-142-24l167 167a125 125 0 0 0-25-143z m-464-37a247 247 0 0 1-175-72l0 0 0 0a250 250 0 0 1 175-428 250 250 0 0 1 173 70l5 3a44 44 0 0 0 3 4 250 250 0 0 1-181 423z m-118-368a167 167 0 0 0-25 202l227-227a167 167 0 0 0-202 25z m262 35l-227 227a167 167 0 0 0 83 23 167 167 0 0 0 144-250z" horiz-adv-x="1000" />

<glyph glyph-name="capsule" unicode="&#xe911;" d="M813 663a213 213 0 0 1-302 0l-323-324a213 213 0 1 1 301-301l324 323a213 213 0 0 1 0 302z m-383-567a134 134 0 0 0-184 0 130 130 0 0 0 0 184l133 133 184-184z m324 324l-133-132-183 183 132 133a130 130 0 0 0 184-184z" horiz-adv-x="1000" />

<glyph glyph-name="stretcher" unicode="&#xe912;" d="M750 663h125a42 42 0 0 1 0 83h-125a42 42 0 0 1 0-83z m125-84h-750a42 42 0 0 1-42-41v-167a42 42 0 0 1 42-42h65l213-106-108-54a125 125 0 0 1-87 35 125 125 0 1 1 125-125 92 92 0 0 1 0 15l165 84 169-88a96 96 0 0 1 0-11 125 125 0 1 1 125 125 125 125 0 0 1-90-38l-113 57 213 106h73a42 42 0 0 1 42 42v167a42 42 0 0 1-42 41z m-667-541a42 42 0 1 0 42 41 42 42 0 0 0-42-41z m584 83a42 42 0 1 0-42-42 42 42 0 0 0 42 42z m-296 148l-121 60h240z m337 144h-666v83h666z" horiz-adv-x="1000" />

<glyph glyph-name="presentation-check" unicode="&#xe913;" d="M429 362a42 42 0 0 1 59 0l167 167a42 42 0 1 1-60 59l-137-138-53 55a42 42 0 0 1-60-60z m446-95h-42v416h42a42 42 0 0 1 0 84h-750a42 42 0 0 1 0-84h42v-416h-42a42 42 0 0 1 0-84h333v-48l-189-125a42 42 0 0 1 23-77 39 39 0 0 1 23 7l143 95v-60a42 42 0 0 1 84 0v60l143-95a39 39 0 0 1 23-7 42 42 0 0 1 23 77l-189 125v48h333a42 42 0 0 1 0 84z m-125 0h-500v416h500z" horiz-adv-x="1000" />

<glyph glyph-name="medkit" unicode="&#xe914;" d="M417 142h41v-42a42 42 0 0 1 84 0v42h41a42 42 0 0 1 0 83h-41v42a42 42 0 0 1-84 0v-42h-41a42 42 0 0 1 0-83z m375 458h-84v42a125 125 0 0 1-125 125h-166a125 125 0 0 1-125-125v-42h-84a125 125 0 0 1-125-125v-417a125 125 0 0 1 125-125h584a125 125 0 0 1 125 125v417a125 125 0 0 1-125 125z m-417 42a42 42 0 0 0 42 41h166a42 42 0 0 0 42-41v-42h-250z m458-584a42 42 0 0 0-41-41h-584a42 42 0 0 0-41 41v292h666z m0 375h-666v42a42 42 0 0 0 41 42h584a42 42 0 0 0 41-42z" horiz-adv-x="1000" />

<glyph glyph-name="meeting-board" unicode="&#xe915;" d="M292 433h83a42 42 0 0 1 0 84h-83a42 42 0 0 1 0-84z m583 250h-333v42a42 42 0 0 1-84 0v-42h-333a42 42 0 0 1-42-41v-417a125 125 0 0 1 125-125h192l-96-95a42 42 0 0 1 0-60 42 42 0 0 1 59 0l95 96v-66a42 42 0 0 1 84 0v66l95-96a42 42 0 0 1 59 0 42 42 0 0 1 0 60l-96 95h192a125 125 0 0 1 125 125v417a42 42 0 0 1-42 41z m-42-458a42 42 0 0 0-41-42h-584a42 42 0 0 0-41 42v375h666z m-541 42h250a42 42 0 0 1 0 83h-250a42 42 0 0 1 0-83z" horiz-adv-x="1000" />

<glyph glyph-name="monitor-heart-rate" unicode="&#xe916;" d="M375 58a42 42 0 0 1 16 4 48 48 0 0 1 14 8 42 42 0 0 1 5 7 23 23 0 0 1 3 7 27 27 0 0 1 4 8 57 57 0 0 1 0 8 42 42 0 0 1-4 16 38 38 0 0 1-22 22 42 42 0 0 1-24 4l-8-3a23 23 0 0 1-7-4 42 42 0 0 1-7-5 42 42 0 0 1-8-13 42 42 0 0 1-4-17 42 42 0 0 1 42-42z m-155 12a48 48 0 0 1 14-8 42 42 0 0 1 16-4l8 0a25 25 0 0 1 8 3 32 32 0 0 1 7 4l7 5a48 48 0 0 1 8 13 35 35 0 0 1 4 17 57 57 0 0 1 0 8 27 27 0 0 1-3 8 23 23 0 0 1-4 7 42 42 0 0 1-5 7 42 42 0 0 1-45 8 42 42 0 0 1-14-8 42 42 0 0 1-5-7 23 23 0 0 1-4-7 27 27 0 0 1-4-8 57 57 0 0 1 0-8 42 42 0 0 1 4-16 48 48 0 0 1 8-14z m572 697h-584a125 125 0 0 1-125-125v-584a125 125 0 0 1 125-125h584a125 125 0 0 1 125 125v584a125 125 0 0 1-125 125z m41-709a42 42 0 0 0-41-41h-584a42 42 0 0 0-41 41v125h666z m0 209h-666v166h166a42 42 0 0 1 30 12l54 53 116-134a42 42 0 0 1 30-14h0a42 42 0 0 1 30 12l70 71h170z m0 250h-187a42 42 0 0 1-30-12l-51-52-117 133a42 42 0 0 1-61 0l-71-69h-149v125a42 42 0 0 0 41 41h584a42 42 0 0 0 41-41z" horiz-adv-x="1000" />

<glyph glyph-name="file-medical-alt" unicode="&#xe917;" d="M750 100a42 42 0 0 1-42-42 42 42 0 0 0-41-41h-417a42 42 0 0 0-42 41v584a42 42 0 0 0 42 41h208v-125a125 125 0 0 1 125-125h125v-41a42 42 0 0 1 84 0v83s0 0 0 3a55 55 0 0 1-3 11 13 13 0 0 1 0 4 45 45 0 0 1-8 11h0l-250 250h0a45 45 0 0 1-11 8l-5 0a47 47 0 0 1-12 5h-253a125 125 0 0 1-125-125v-584a125 125 0 0 1 125-125h417a125 125 0 0 1 125 125 42 42 0 0 1-42 42z m-208 525l108-108h-67a42 42 0 0 0-41 41z m291-358h-104a42 42 0 0 1-29-12l-52-52-117 133a42 42 0 0 1-61 2l-70-71h-67a42 42 0 0 1 0-84h84a42 42 0 0 1 29 12l54 53 117-134a42 42 0 0 1 30-14h0a42 42 0 0 1 29 12l70 71h87a42 42 0 0 1 0 84z" horiz-adv-x="1000" />

<glyph glyph-name="heartbeat" unicode="&#xe918;" d="M875 416h-104a42 42 0 0 1-30-12l-51-54-117 133a42 42 0 0 1-61 0l-71-71h-66a42 42 0 0 1 0-83h83a42 42 0 0 1 30 12l54 56 116-133a42 42 0 0 1 30-14h0a42 42 0 0 1 30 12l71 71h86a42 42 0 0 1 0 83z m-308-221l-79-79a42 42 0 0 0-59 0l-217 217a154 154 0 0 0 0 218 154 154 0 0 0 217 0 42 42 0 0 1 59 0 157 157 0 0 0 217 0 164 164 0 0 0 24-31 42 42 0 0 1 72 41 250 250 0 0 1-37 47 237 237 0 0 1-306 27 237 237 0 0 1-375-193 234 234 0 0 1 70-167l217-217a125 125 0 0 1 177 0l78 79a42 42 0 0 1 0 58 42 42 0 0 1-58 0z" horiz-adv-x="1000" />

<glyph glyph-name="prescription-bottle" unicode="&#xe919;" d="M792 767h-584a83 83 0 0 1-83-84v-83a83 83 0 0 1 83-83v-459a125 125 0 0 1 125-125h334a125 125 0 0 1 125 125v459a83 83 0 0 1 83 83v83a83 83 0 0 1-83 84z m-84-584h-250v167h250z m0 250h-291a42 42 0 0 1-42-41v-250a42 42 0 0 1 42-42h291v-42a42 42 0 0 0-41-41h-334a42 42 0 0 0-41 41v459h416z m-500 167v83h584v-83z" horiz-adv-x="1000" />

<glyph glyph-name="clock-two" unicode="&#xe91a;" d="M500 767a417 417 0 1 1 417-417 417 417 0 0 1-417 417z m0-750a333 333 0 1 0 333 333 334 334 0 0 0-333-333z m87 432l-45-27v136a42 42 0 0 1-84 0v-208a42 42 0 0 1 63-36l108 62a42 42 0 1 1-42 73z" horiz-adv-x="1000" />

<glyph glyph-name="medical-drip" unicode="&#xe91b;" d="M708 600h-83v83h83a42 42 0 0 1 0 84h-333a208 208 0 0 1-208-209v-583a42 42 0 0 1 83 0v583a125 125 0 0 0 125 125h167v-83h-84a125 125 0 0 1-125-125v-205a125 125 0 0 1 56-105l69-46v-19a83 83 0 0 1 84-83v-42a42 42 0 0 1 83 0v42a83 83 0 0 1 83 83v19l70 46a125 125 0 0 1 55 105v205a125 125 0 0 1-125 125z m-41-208h83v-42h-42a42 42 0 0 1 0-83h42a42 42 0 0 0-18-32l-88-59a42 42 0 0 1-19-34v-42h-83v42a42 42 0 0 1-19 34l-88 59a42 42 0 0 0-18 35v205a42 42 0 0 0 41 42h250a42 42 0 0 0 42-42h-83a42 42 0 0 1 0-83z" horiz-adv-x="1000" />

<glyph glyph-name="book-medical" unicode="&#xe91c;" d="M542 475h-84v83a42 42 0 0 1-83 0v-83h-83a42 42 0 0 1 0-83h83v-84a42 42 0 0 1 83 0v84h84a42 42 0 0 1 0 83z m208-250v417a125 125 0 0 1-125 125h-417a125 125 0 0 1-125-125v-417a125 125 0 0 1 125-125h417a125 125 0 0 1 125 125z m-583 0v417a42 42 0 0 0 41 41h417a42 42 0 0 0 42-41v-417a42 42 0 0 0-42-42h-417a42 42 0 0 0-41 42z m708 375a42 42 0 0 1-42-42v-416a125 125 0 0 0-125-125h-416a42 42 0 0 1 0-84h416a208 208 0 0 1 209 209v416a42 42 0 0 1-42 42z" horiz-adv-x="1000" />

<glyph glyph-name="watch-alt" unicode="&#xe91d;" d="M708 491l-41 241a42 42 0 0 1-42 35h-250a42 42 0 0 1-42-35l-41-241a250 250 0 0 1 0-282l41-241a42 42 0 0 1 42-35h250a42 42 0 0 1 42 35l41 241a250 250 0 0 1 0 282z m-298 192h180l18-108a250 250 0 0 1-216 0z m180-666h-180l-18 108a250 250 0 0 1 216 0z m-90 166a167 167 0 1 0 167 167 167 167 0 0 0-167-167z" horiz-adv-x="1000" />

<glyph glyph-name="stopwatch" unicode="&#xe91e;" d="M763 492l37 38a42 42 0 0 1-59 59l-37-38a333 333 0 0 1-408 0l-38 38a42 42 0 0 1-59-59l38-38a330 330 0 0 1-70-204 333 333 0 1 1 596 204z m-263-454a250 250 0 1 0 250 250 250 250 0 0 0-250-250z m-83 625h166a42 42 0 0 1 0 83h-166a42 42 0 0 1 0-83z m125-250a42 42 0 0 1-84 0v-79a63 63 0 1 1 84 0z" horiz-adv-x="1000" />

<glyph glyph-name="watch" unicode="&#xe91f;" d="M708 568v157a42 42 0 0 1-41 42h-334a42 42 0 0 1-41-42v-157a125 125 0 0 1-42-93v-250a125 125 0 0 1 42-92v-158a42 42 0 0 1 41-42h334a42 42 0 0 1 41 42v158a125 125 0 0 1 42 92v250a125 125 0 0 1-42 93z m-333 115h250v-83h-250z m250-666h-250v83h250z m42 208a42 42 0 0 0-42-42h-250a42 42 0 0 0-42 42v250a42 42 0 0 0 42 42h250a42 42 0 0 0 42-42z" horiz-adv-x="1000" />

<glyph glyph-name="clock" unicode="&#xe920;" d="M629 324l-87 50v184a42 42 0 0 1-84 0v-208a42 42 0 0 1 21-36l108-63a42 42 0 1 1 42 73z m-129 443a417 417 0 1 1 417-417 417 417 0 0 1-417 417z m0-750a333 333 0 1 0 333 333 334 334 0 0 0-333-333z" horiz-adv-x="1000" />

<glyph glyph-name="clock-seven" unicode="&#xe921;" d="M500 767a417 417 0 1 1 417-417 417 417 0 0 1-417 417z m0-750a333 333 0 1 0 333 333 334 334 0 0 0-333-333z m0 583a42 42 0 0 1-42-42v-198l-57-107a42 42 0 0 1 73-39l63 116a42 42 0 0 1 5 20v208a42 42 0 0 1-42 42z" horiz-adv-x="1000" />

<glyph glyph-name="clock-three" unicode="&#xe922;" d="M625 392h-83v166a42 42 0 0 1-84 0v-208a42 42 0 0 1 42-42h125a42 42 0 0 1 0 84z m-125 375a417 417 0 1 1 417-417 417 417 0 0 1-417 417z m0-750a333 333 0 1 0 333 333 334 334 0 0 0-333-333z" horiz-adv-x="1000" />

<glyph glyph-name="clock-nine" unicode="&#xe923;" d="M500 600a42 42 0 0 1-42-42v-166h-83a42 42 0 0 1 0-84h125a42 42 0 0 1 42 42v208a42 42 0 0 1-42 42z m0 167a417 417 0 1 1 417-417 417 417 0 0 1-417 417z m0-750a333 333 0 1 0 333 333 334 334 0 0 0-333-333z" horiz-adv-x="1000" />

<glyph glyph-name="clock-ten" unicode="&#xe924;" d="M500 600a42 42 0 0 1-42-42v-136l-45 27a42 42 0 0 1-42-73l108-62a42 42 0 0 1 63 36v208a42 42 0 0 1-42 42z m0 167a417 417 0 1 1 417-417 417 417 0 0 1-417 417z m0-750a333 333 0 1 0 333 333 334 334 0 0 0-333-333z" horiz-adv-x="1000" />

<glyph glyph-name="files-landscapes" unicode="&#xe925;" d="M958 436a55 55 0 0 1-2 11l0 4a45 45 0 0 1-8 12h0l-250 250h0a45 45 0 0 1-12 7l-3 0a37 37 0 0 1-14 5h-336a125 125 0 0 1-125-125v-42h-41a125 125 0 0 1-125-125v-333a125 125 0 0 1 125-125h500a125 125 0 0 1 125 125v42h41a125 125 0 0 1 125 125v166s0 0 0 3z m-250 147l108-108h-66a42 42 0 0 0-42 42z m0-483a42 42 0 0 0-41-42h-500a42 42 0 0 0-42 42v333a42 42 0 0 0 42 42h41v-208a125 125 0 0 1 125-125h375z m167 167a42 42 0 0 0-42-42h-500a42 42 0 0 0-41 42v333a42 42 0 0 0 41 42h292v-125a125 125 0 0 1 125-125h125z" horiz-adv-x="1000" />

<glyph glyph-name="clock-five" unicode="&#xe926;" d="M500 767a417 417 0 1 1 417-417 417 417 0 0 1-417 417z m0-750a333 333 0 1 0 333 333 334 334 0 0 0-333-333z m42 343v198a42 42 0 0 1-84 0v-208a42 42 0 0 1 5-20l63-116a42 42 0 0 1 73 39z" horiz-adv-x="1000" />

<glyph glyph-name="brain" unicode="&#xe927;" d="M917 392a167 167 0 0 1-84 145 125 125 0 0 1 0 21 125 125 0 0 1-125 125l-7 0a125 125 0 0 1-201 51 125 125 0 0 1-201-51l-7 0a125 125 0 0 1-125-125 125 125 0 0 1 0-21 167 167 0 0 1-23-275 167 167 0 0 1 148-245l7 0a125 125 0 0 1 201-51 125 125 0 0 1 201 51l7 0a167 167 0 0 1 146 245 167 167 0 0 1 63 130z m-459 102a197 197 0 0 1-28 13 42 42 0 0 1-27-79 83 83 0 0 0 55-78v-65a197 197 0 0 1-28 14 42 42 0 0 1-27-79 83 83 0 0 0 55-78v-84a42 42 0 0 0-41-41 42 42 0 0 0-38 25 170 170 0 0 1 20 13 42 42 0 1 1-54 65 83 83 0 0 0-53-20 83 83 0 0 0-84 83 83 83 0 0 0 14 45 159 159 0 0 1 28-3 42 42 0 0 1 0 83 77 77 0 0 0-29 6 83 83 0 0 0-13 151 129 129 0 0 1 19-15 42 42 0 1 1 42 73 38 38 0 0 0-14 13 38 38 0 0 0-5 22 42 42 0 0 0 42 42 32 32 0 0 0 8 0 160 160 0 0 1 8-20 42 42 0 0 1 57-15 42 42 0 0 1 15 56 44 44 0 0 0-5 21 42 42 0 0 0 83 0z m321-180a77 77 0 0 0-29-6 42 42 0 0 1 0-83 159 159 0 0 1 28 3 83 83 0 0 0 14-45 83 83 0 0 0-84-83 83 83 0 0 0-53 20 42 42 0 0 1-54-65 170 170 0 0 1 20-13 42 42 0 0 0-38-25 42 42 0 0 0-41 41v84a83 83 0 0 0 55 78 42 42 0 0 1-27 79 197 197 0 0 1-28-14v65a83 83 0 0 0 55 78 42 42 0 0 1-27 79 197 197 0 0 1-28-13v148a42 42 0 0 0 83 0 44 44 0 0 0-5-21 42 42 0 0 1 15-57 42 42 0 0 1 57 15 160 160 0 0 1 8 21 32 32 0 0 0 8 0 42 42 0 0 0 42-42 42 42 0 0 0-7-23 38 38 0 0 0-14-12 42 42 0 0 1 42-73 111 111 0 0 1 21 15 83 83 0 0 0-12-151z" horiz-adv-x="1000" />

<glyph glyph-name="file-plus-alt" unicode="&#xe928;" d="M833 100h-41v42a42 42 0 0 1-84 0v-42h-41a42 42 0 0 1 0-83h41v-42a42 42 0 0 1 84 0v42h41a42 42 0 0 1 0 83z m-291-83h-292a42 42 0 0 0-42 41v584a42 42 0 0 0 42 41h208v-125a125 125 0 0 1 125-125h125v-125a42 42 0 0 1 84 0v167s0 0 0 3a55 55 0 0 1-3 11l0 4a45 45 0 0 1-8 11h0l-250 250h0a45 45 0 0 1-11 8 12 12 0 0 1-5 0 46 46 0 0 1-12 5h-253a125 125 0 0 1-125-125v-584a125 125 0 0 1 125-125h292a42 42 0 0 1 0 84z m0 608l108-108h-67a42 42 0 0 0-41 41z m-209-108a42 42 0 0 1 0-84h42a42 42 0 0 1 0 84z m209-334h-209a42 42 0 0 1 0-83h209a42 42 0 0 1 0 83z m41 167h-250a42 42 0 0 1 0-83h250a42 42 0 0 1 0 83z" horiz-adv-x="1000" />

<glyph glyph-name="file-network" unicode="&#xe929;" d="M875 58h-257a125 125 0 0 1-76 76v91h125a125 125 0 0 1 125 125v167s0 0 0 2a55 55 0 0 1-3 11l0 4a45 45 0 0 1-8 12h0l-250 250h0a45 45 0 0 1-11 8 13 13 0 0 1-4 0 37 37 0 0 1-14 4h-169a125 125 0 0 1-125-125v-333a125 125 0 0 1 125-125h125v-91a125 125 0 0 1-76-76h-257a42 42 0 0 1 0-83h257a125 125 0 0 1 235 0h258a42 42 0 0 1 0 83z m-333 608l108-108h-67a42 42 0 0 0-41 42z m-209-358a42 42 0 0 0-41 42v333a42 42 0 0 0 41 42h125v-125a125 125 0 0 1 125-125h125v-125a42 42 0 0 0-41-42z m167-333a42 42 0 1 0 42 42 42 42 0 0 0-42-42z" horiz-adv-x="1000" />

<glyph glyph-name="file-contract-dollar" unicode="&#xe92a;" d="M905 5l-72 72c0 4 0 8 0 13a115 115 0 0 1-114 114h-14l-60 60a28 28 0 0 0 11 3h136a42 42 0 0 1 0 83h-63v42a42 42 0 0 1-83 0v-42a114 114 0 0 1-61-25l-55 56a42 42 0 0 1-60-59l72-74c0-4 0-8 0-13a115 115 0 0 1 114-114h14l60-60a28 28 0 0 0-11-3h-136a42 42 0 0 1 0-83h63v-42a42 42 0 0 1 83 0v42a114 114 0 0 1 63 26l55-56a42 42 0 0 1 59 0 42 42 0 0 1-1 60z m-488 53h-209a42 42 0 0 0-41 42v583a42 42 0 0 0 41 42h250v-167a42 42 0 0 1 42-41h208a42 42 0 0 1 39 26 42 42 0 0 1-9 45l-208 208h0a45 45 0 0 1-12 8l-4 0a55 55 0 0 1-11 4h-295a125 125 0 0 1-125-125v-583a125 125 0 0 1 125-125h209a42 42 0 0 1 0 83z m125 608l66-66h-66z" horiz-adv-x="1000" />

<glyph glyph-name="file-upload-alt" unicode="&#xe92b;" d="M542 17h-292a42 42 0 0 0-42 41v584a42 42 0 0 0 42 41h208v-125a125 125 0 0 1 125-125h125v-83a42 42 0 0 1 84 0v125s0 0 0 3a55 55 0 0 1-3 11l0 4a45 45 0 0 1-8 11h0l-250 250h0a45 45 0 0 1-11 8 13 13 0 0 1-4 0 37 37 0 0 1-14 5h-252a125 125 0 0 1-125-125v-584a125 125 0 0 1 125-125h292a42 42 0 0 1 0 84z m0 608l108-108h-67a42 42 0 0 0-41 41z m-209-108a42 42 0 0 1 0-84h42a42 42 0 0 1 0 84z m250-167h-250a42 42 0 0 1 0-83h250a42 42 0 0 1 0 83z m280-220l-83 83a42 42 0 0 1-14 9 42 42 0 0 1-32 0 42 42 0 0 1-14-9l-83-83a42 42 0 0 1 59-60l12 13v-108a42 42 0 0 1 84 0v108l12-13a42 42 0 0 1 59 0 42 42 0 0 1 0 60z m-363-30a42 42 0 0 1 0 83h-167a42 42 0 0 1 0-83z" horiz-adv-x="1000" />
</font>
</defs>
</svg>
