<?xml version="1.0" standalone="no"?>
<!DOCTYPE svg PUBLIC "-//W3C//DTD SVG 1.1//EN" "http://www.w3.org/Graphics/SVG/1.1/DTD/svg11.dtd">
<svg xmlns="http://www.w3.org/2000/svg">
<metadata>IconScout</metadata>
<defs>
<font id="unicons-16" horiz-adv-x="1000" >
<font-face font-family="unicons-16" font-weight="400" font-stretch="normal" units-per-em="1000" ascent="850" descent="-150" />
<missing-glyph horiz-adv-x="1000" />
<glyph glyph-name="calendar-slash" unicode="&#xebc6;" d="M486 558h139v-41a42 42 0 0 1 83 0v41h42a42 42 0 0 0 42-41v-125h-56a42 42 0 0 1 0-84h56v-55a42 42 0 1 1 83 0v264a125 125 0 0 1-125 125h-42v41a42 42 0 0 1-83 0v-41h-139a42 42 0 0 1 0-84z m419-553l-67 66h0l-683 684a42 42 0 0 1-60-60l80-79a125 125 0 0 1-50-99v-417a125 125 0 0 1 125-125h500a125 125 0 0 1 54 12l41-41a42 42 0 0 1 60 0 42 42 0 0 1 0 59z m-697 512a42 42 0 0 0 28 38l164-163h-192z m42-459a42 42 0 0 0-42 42v208h275l250-250z" horiz-adv-x="1000" />

<glyph glyph-name="image-slash" unicode="&#xebc7;" d="M813 683h-396a42 42 0 0 1 0-83h396a42 42 0 0 0 41-42v-281l-78 78a125 125 0 0 1-48 30 42 42 0 1 1-26-80 34 34 0 0 0 15-9l138-137a28 28 0 0 1 0-6 35 35 0 0 1 0-7 49 49 0 0 1 5-7 20 20 0 0 1 4-5 38 38 0 0 1 8-6 25 25 0 0 1 5-2 38 38 0 0 1 15-4 42 42 0 0 1 42 42v394a125 125 0 0 1-121 125z m-679 72a42 42 0 0 1-59-60l58-57a125 125 0 0 1-29-80v-416a125 125 0 0 1 125-125h525l71-72a42 42 0 0 1 59 0 42 42 0 0 1 0 60z m54-197a42 42 0 0 0 5 20l113-113a125 125 0 0 1-42-27l-76-78z m41-458a42 42 0 0 0-41 42v101l137 137a42 42 0 0 0 58 0l280-280z" horiz-adv-x="1000" />

<glyph glyph-name="image-alt-slash" unicode="&#xebc8;" d="M905 5l-39 38-4 5-2 2-21 21-6 3-215 217-4 3-134 134-4 5-321 322a42 42 0 0 1-60-60l42-41a125 125 0 0 1-12-54v-500a125 125 0 0 1 125-125h500a121 121 0 0 1 53 13l0 0h0s0 0 2 0l40-42a42 42 0 0 1 59 0 42 42 0 0 1 1 59z m-697 578l135-135a118 118 0 0 1-28-20l-107-108z m42-525a42 42 0 0 0-42 42v103l167 166a34 34 0 0 0 46 0l312-311z m153 584h347a42 42 0 0 0 42-42v-247l0 0a42 42 0 1 1-59-60l72-72a42 42 0 0 1 59 0 42 42 0 0 1 12 30h0v349a125 125 0 0 1-125 125h-348a42 42 0 0 1 0-83z" horiz-adv-x="1000" />

<glyph glyph-name="lock-slash" unicode="&#xebc9;" d="M452 626a83 83 0 0 0 107-9 83 83 0 0 0 24-59v-125a42 42 0 0 1 42-41h42a42 42 0 0 0 41-42v-14a42 42 0 0 1 84 0v14a125 125 0 0 1-125 125v83a167 167 0 0 1-49 118 169 169 0 0 1-216 17 42 42 0 1 1 50-67z m453-621l-750 750a42 42 0 0 1-60-60l223-220a125 125 0 0 1-110-125v-250a125 125 0 0 1 125-125h334a125 125 0 0 1 99 50l79-80a42 42 0 0 1 60 0 42 42 0 0 1 0 60z m-238 53h-334a42 42 0 0 0-41 42v250a42 42 0 0 0 41 42h67l86-87a42 42 0 0 1-28-38v-84a42 42 0 0 1 84 0v67l163-164a42 42 0 0 0-38-28z" horiz-adv-x="1000" />

<glyph glyph-name="money-bill-slash" unicode="&#xebca;" d="M250 392a42 42 0 1 1 42-42 42 42 0 0 1-42 42z m244 64h0l-298 299a42 42 0 0 1-59-60l54-53h-24a125 125 0 0 1-125-125v-334a125 125 0 0 1 125-125h608l112-113a42 42 0 0 1 59 0 42 42 0 0 1 0 60z m-31-87l56-56a42 42 0 0 0-19-5 42 42 0 0 0-42 42 42 42 0 0 0 5 19z m-296-227a42 42 0 0 0-42 41v334a42 42 0 0 0 42 41h108l129-129a125 125 0 0 1-29-79 125 125 0 0 1 125-125 125 125 0 0 1 79 29l112-112z m666 500h-305a42 42 0 0 1 0-84h305a42 42 0 0 0 42-41v-306a42 42 0 1 1 83 0v306a125 125 0 0 1-125 125z m-41-292a42 42 0 1 1-42-42 42 42 0 0 1 42 42z" horiz-adv-x="1000" />

<glyph glyph-name="comment-slash" unicode="&#xebcb;" d="M425 632a297 297 0 0 0 75 10 292 292 0 0 0 292-292 297 297 0 0 0-10-75 42 42 0 0 1 29-52 48 48 0 0 1 11 0 42 42 0 0 1 42 31 371 371 0 0 1 11 96 375 375 0 0 1-375 375 371 371 0 0 1-97-12 42 42 0 0 1-28-52 42 42 0 0 1 50-29z m480-627l-750 750a42 42 0 0 1-60-60l113-111a375 375 0 0 1 0-468l-71-70a42 42 0 0 1-9-45 42 42 0 0 1 39-26h333a375 375 0 0 1 234 83l111-111a42 42 0 0 1 60 0 42 42 0 0 1 0 58z m-405 53h-233l27 27a42 42 0 0 1 0 58 292 292 0 0 0-27 382l408-408a292 292 0 0 0-175-59z" horiz-adv-x="1000" />

<glyph glyph-name="map-marker-slash" unicode="&#xebcc;" d="M443 621a250 250 0 0 0 300-300 42 42 0 0 1 31-50 38 38 0 0 1 10 0 42 42 0 0 1 41 32 333 333 0 0 1-400 400 42 42 0 0 1 19-83z m462-607l-178 178h0l-572 572a42 42 0 0 1-60 0 42 42 0 0 1 0-59l134-134a333 333 0 0 1 35-429l206-207a42 42 0 0 1 60 0l166 167 149-148a42 42 0 0 1 59 59z m-400 281a83 83 0 0 0-64 24 83 83 0 0 0-24 64z m-5-270l-177 176a250 250 0 0 0-34 310l61-61a167 167 0 0 1 32-190 167 167 0 0 1 118-49 164 164 0 0 1 72 17l66-65z" horiz-adv-x="1000" />

<glyph glyph-name="tear" unicode="&#xebcd;" d="M523 760a42 42 0 0 1-46 0c-13-9-300-209-300-504a323 323 0 0 1 646 0c0 300-288 496-300 504z m-23-743a240 240 0 0 0-240 239c0 209 176 366 240 417 65-50 240-208 240-417a240 240 0 0 0-240-239z" horiz-adv-x="1000" />

<glyph glyph-name="comment-alt-slash" unicode="&#xebce;" d="M444 600h264a42 42 0 0 0 42-42v-264a42 42 0 1 1 83 0v264a125 125 0 0 1-125 125h-264a42 42 0 0 1 0-83z m461-595l-750 750a42 42 0 0 1-60-60l84-83a125 125 0 0 1-12-54v-500a42 42 0 0 1 26-38 35 35 0 0 1 15-3 42 42 0 0 1 30 12l112 113h300l195-197a42 42 0 0 1 60 0 42 42 0 0 1 0 60z m-572 220a42 42 0 0 1-29-12l-54-54v382l316-316z" horiz-adv-x="1000" />

<glyph glyph-name="folder-slash" unicode="&#xebcf;" d="M905 5l-67 66h0l-683 684a42 42 0 0 1-60-60l59-57a125 125 0 0 1-29-80v-458a125 125 0 0 1 125-125h500a125 125 0 0 1 54 12l41-41a42 42 0 0 1 60 0 42 42 0 0 1 0 59z m-655 53a42 42 0 0 0-42 42v458a42 42 0 0 0 5 20l520-520z m192 542a42 42 0 0 0 38-28l22-68a42 42 0 0 1 40-29h208a42 42 0 0 0 42-42v-180a42 42 0 1 1 83 0v180a125 125 0 0 1-125 125h-178l-14 42a125 125 0 0 1-111 83 42 42 0 0 1-4-83z" horiz-adv-x="1000" />

<glyph glyph-name="filter-slash" unicode="&#xebd0;" d="M801 600h-273a42 42 0 0 1 0-83h273a33 33 0 0 0 32-33v-32h-157a42 42 0 1 1 0-84h99l-30-28a42 42 0 0 1 0-60 42 42 0 0 1 60 0l78 79a105 105 0 0 1 22 33h0l0 4a108 108 0 0 1 12 45v42a116 116 0 0 1-116 117z m-646 155a42 42 0 0 1-60-60l119-118a114 114 0 0 1-47-93v-41a110 110 0 0 1 10-46l0-3a109 109 0 0 1 22-34l226-225v-160a42 42 0 0 1 19-35 42 42 0 0 1 22-7 42 42 0 0 1 19 5l148 74a42 42 0 0 1 23 37v84h0l188-189a42 42 0 0 1 59 0 42 42 0 0 1 0 59z m95-271a32 32 0 0 0 21 30l4 3 65-65h-90z m336-304a42 42 0 0 1-12-29v-76l-65-32v108a42 42 0 0 1-12 29l-188 188h114l176-175z" horiz-adv-x="1000" />

<glyph glyph-name="file-slash" unicode="&#xebd1;" d="M905 5l-750 750a42 42 0 0 1-60-60l72-70v-567a125 125 0 0 1 125-125h416a125 125 0 0 1 100 50l37-38a42 42 0 0 1 60 0 42 42 0 0 1 0 60z m-197 12h-416a42 42 0 0 0-42 41v483l497-497a42 42 0 0 0-39-27z m-347 666h139v-125a125 125 0 0 1 125-125h125v-139a42 42 0 1 1 83 0v181s0 0 0 3a55 55 0 0 1-2 11l0 4a45 45 0 0 1-8 11h0l-250 250h0a45 45 0 0 1-12 8l-3 0-14 5h-183a42 42 0 0 1 0-84z m222-58l108-108h-66a42 42 0 0 0-42 41z" horiz-adv-x="1000" />

<glyph glyph-name="file-lanscape-slash" unicode="&#xebd2;" d="M917 394a55 55 0 0 1-3 11l0 4a45 45 0 0 1-8 12h0l-250 250h0a45 45 0 0 1-11 8l-4 0a37 37 0 0 1-14 4h-183a42 42 0 0 1 0-83h139v-125a125 125 0 0 1 125-125h125v-139a42 42 0 1 1 84 0v181s0 0 0 2z m-209 39a42 42 0 0 0-41 42v66l108-108z m-553 322a42 42 0 0 1-60-60l38-37a125 125 0 0 1-50-100v-416a125 125 0 0 1 125-125h567l70-72a42 42 0 0 1 60 0 42 42 0 0 1 0 60z m53-655a42 42 0 0 0-41 42v416a42 42 0 0 0 27 39l497-497z" horiz-adv-x="1000" />

<glyph glyph-name="glass-martini-alt-slash" unicode="&#xebd3;" d="M821 171l-583 584a42 42 0 0 1-59-60l96-95h-67a42 42 0 0 1-37-24 42 42 0 0 1 5-41l282-356v-162h-177a42 42 0 0 1 0-84h438a42 42 0 0 1 0 84h-177v162l68 84 152-153a42 42 0 0 1 59 0 42 42 0 0 1 0 61z m-526 346h63l79-79h-79z m205-257l-75 95h95l31-31z m111 257h94l-26-33a42 42 0 0 1 6-59 42 42 0 0 1 26-9 42 42 0 0 1 33 16l80 101a42 42 0 0 1 5 41 42 42 0 0 1-37 26h-181a42 42 0 0 1 0-83z" horiz-adv-x="1000" />

<glyph glyph-name="car-slash" unicode="&#xebd4;" d="M292 308a42 42 0 1 1 41-41 42 42 0 0 1-41 41z m531 162l-56 170a125 125 0 0 1-119 83h-245a42 42 0 0 1 0-83h245a42 42 0 0 0 42-29l44-136h-81a42 42 0 0 1 0-83h139a42 42 0 0 0 41-42v-139a42 42 0 1 1 84 0v139a125 125 0 0 1-94 120z m-666 285a42 42 0 0 1-62-60l118-117-36-108a125 125 0 0 1-94-120v-167a125 125 0 0 1 84-117v-49a42 42 0 0 1 83 0v41h483l17-17v-24a42 42 0 0 1 42-42 38 38 0 0 1 19 5l34-35a42 42 0 0 1 60 0 42 42 0 0 1 0 60z m125-242l37-38h-53z m-74-371a42 42 0 0 0-41 41v167a42 42 0 0 0 41 42h192l83-84h-25a42 42 0 0 1 0-83h84a38 38 0 0 1 19 5l89-88z" horiz-adv-x="1000" />

<glyph glyph-name="camera-slash" unicode="&#xebd5;" d="M155 755a42 42 0 0 1-60-60l117-116h-4a125 125 0 0 1-125-125v-333a125 125 0 0 1 125-125h587l50-51a42 42 0 0 1 60 0 42 42 0 0 1 0 59z m270-389l112-112a83 83 0 0 0-37-8 83 83 0 0 0-83 83 83 83 0 0 0 8 37z m-217-287a42 42 0 0 0-41 42v333a42 42 0 0 0 41 42h87l70-71a163 163 0 0 1-32-96 167 167 0 0 1 167-166 163 163 0 0 1 97 32l115-116z m584 500h-54l-13 42a125 125 0 0 1-118 83h-184a42 42 0 0 1 0-83h184a42 42 0 0 0 39-28l23-68a42 42 0 0 1 39-29h84a42 42 0 0 0 41-42v-243a42 42 0 1 1 84 0v243a125 125 0 0 1-125 125z" horiz-adv-x="1000" />

<glyph glyph-name="list-ul" unicode="&#xebd6;" d="M155 171a42 42 0 0 1-14 9 42 42 0 0 1-32 0 42 42 0 0 1-14-9 42 42 0 0 1-8-13 42 42 0 0 1 8-46 48 48 0 0 1 14-9 39 39 0 0 1 32 0 48 48 0 0 1 14 9 42 42 0 0 1 8 46 42 42 0 0 1-8 13z m137 346h583a42 42 0 0 1 0 83h-583a42 42 0 0 1 0-83z m-137-137a42 42 0 0 1-46 8 48 48 0 0 1-14-8 42 42 0 0 1-8-14 39 39 0 0 1 0-32 48 48 0 0 1 8-14 48 48 0 0 1 14-8 39 39 0 0 1 32 0 48 48 0 0 1 14 8 48 48 0 0 1 8 14 39 39 0 0 1 0 32 42 42 0 0 1-8 14z m720 12h-583a42 42 0 0 1 0-84h583a42 42 0 0 1 0 84z m-720 196a42 42 0 0 1-14 9 42 42 0 0 1-46-9 48 48 0 0 1-8-14 39 39 0 0 1 0-31 48 48 0 0 1 8-14 48 48 0 0 1 14-9 42 42 0 0 1 46 9 48 48 0 0 1 8 14 39 39 0 0 1 0 31 48 48 0 0 1-8 14z m720-405h-583a42 42 0 0 1 0-83h583a42 42 0 0 1 0 83z" horiz-adv-x="1000" />

<glyph glyph-name="layer-group-slash" unicode="&#xebd7;" d="M427 642l73 41 292-166-132-77a42 42 0 0 1-15-56 42 42 0 0 1 57-16l194 112a42 42 0 0 1 0 73l-375 217a42 42 0 0 1-42 0l-93-55a42 42 0 0 1-16-57 42 42 0 0 1 57-16z m-272 113a42 42 0 0 1-60-60l94-95-83-49a42 42 0 0 1 0-72l375-217a42 42 0 0 1 42 0l4 3 44-45-69-42-356 208a42 42 0 1 1-42-72l375-217a42 42 0 0 1 21-5 42 42 0 0 1 21 5l109 63 45-44-175-99-354 203a42 42 0 0 1-42-73l375-217a42 42 0 0 1 42 0l215 125 109-109a42 42 0 0 1 60 0 42 42 0 0 1 0 59z m53-238l42 24 115-115z m646-131l-88-51a42 42 0 0 1 41-72l89 51a42 42 0 1 1-42 72z" horiz-adv-x="1000" />

<glyph glyph-name="plug" unicode="&#xebd8;" d="M792 600h-125v125a42 42 0 0 1-84 0v-125h-166v125a42 42 0 0 1-84 0v-125h-125a42 42 0 0 1 0-83h42v-209a42 42 0 0 1 12-29l113-113v-191a42 42 0 0 1 83 0v167h84v-167a42 42 0 0 1 83 0v191l113 113a42 42 0 0 1 12 29v209h42a42 42 0 0 1 0 83z m-125-275l-101-100h-132l-101 100v192h334z m-209-17h84a42 42 0 0 1 0 84h-84a42 42 0 0 1 0-84z" horiz-adv-x="1000" />

<glyph glyph-name="bell-slash" unicode="&#xebd9;" d="M461 595a145 145 0 0 0 39 5 167 167 0 0 0 167-167v-55a42 42 0 0 1 83 0v55a250 250 0 0 1-208 247v45a42 42 0 0 1-84 0v-46l-18-3a42 42 0 0 1 21-81z m444-590l-750 750a42 42 0 0 1-60-60l172-171a250 250 0 0 1-17-91v-132a125 125 0 0 1-83-118v-83a42 42 0 0 1 41-42h131a167 167 0 0 1 322 0h72l112-113a42 42 0 0 1 60 0 42 42 0 0 1 0 60z m-572 428a138 138 0 0 0 0 23l150-148h-150z m167-416a83 83 0 0 0-72 41h144a83 83 0 0 0-72-41z m-250 125v41a42 42 0 0 0 42 42h274l84-83z" horiz-adv-x="1000" />

<glyph glyph-name="expand-right" unicode="&#xebda;" d="M354 263l-187-188v67c0 25-17 41-42 41s-42-16-42-41v-167c0-4 0-12 5-17 4-8 12-16 20-20 5-5 13-5 17-5h167c25 0 41 17 41 42s-16 42-41 42h-67l188 187c16 17 16 42 0 59-17 16-42 16-59 0z m550 491c0 0 0 0 0 0-8 9-21 13-29 13h-167c-25 0-41-17-41-42s16-42 41-42h67l-187-187c-17-17-17-42 0-58l0 0c8-9 16-13 29-13 12 0 21 4 29 13l187 187v-67c0-25 17-41 42-41s42 16 42 41v167c0 8-5 21-13 29z m-258-491l-233 233c-17 17-42 17-59 0-16-17-16-42 0-58l238-238c8-8 16-12 29-12 12 0 21 4 29 12 13 17 13 46-4 63 0 0 0 0 0 0z" horiz-adv-x="1000" />

<glyph glyph-name="bell" unicode="&#xebdb;" d="M750 301v132a250 250 0 0 1-208 247v45a42 42 0 0 1-84 0v-45a250 250 0 0 1-208-247v-132a125 125 0 0 1-83-118v-83a42 42 0 0 1 41-42h131a167 167 0 0 1 322 0h131a42 42 0 0 1 41 42v83a125 125 0 0 1-83 118z m-417 132a167 167 0 0 0 334 0v-125h-334z m167-416a83 83 0 0 0-72 41h144a83 83 0 0 0-72-41z m250 125h-500v41a42 42 0 0 0 42 42h416a42 42 0 0 0 42-42z" horiz-adv-x="1000" />

<glyph glyph-name="desktop-alt-slash" unicode="&#xebdc;" d="M905 5l-750 750a42 42 0 0 1-60-60l42-41a125 125 0 0 1-12-54v-333a125 125 0 0 1 125-125h125v-84h-125a42 42 0 0 1 0-83h500a42 42 0 0 1 39 28l56-58a42 42 0 0 1 60 0 42 42 0 0 1 0 60z m-697 578l192-191h-192z m334-525h-84v84h84z m-292 167a42 42 0 0 0-42 42v41h275l83-83z m375-167v84h25l83-84z m-222 584h347a42 42 0 0 0 42-42v-208h-56a42 42 0 0 1 0-84h56v-41a15 15 0 0 0 0-5 42 42 0 0 1 32-49l9 0a42 42 0 0 1 41 33 118 118 0 0 1 1 21v333a125 125 0 0 1-125 125h-347a42 42 0 0 1 0-83z" horiz-adv-x="1000" />

<glyph glyph-name="align-left" unicode="&#xebdd;" d="M125 558h750a42 42 0 0 1 0 84h-750a42 42 0 0 1 0-84z m0-166h583a42 42 0 0 1 0 83h-583a42 42 0 0 1 0-83z m750-84h-750a42 42 0 0 1 0-83h750a42 42 0 0 1 0 83z m-167-166h-583a42 42 0 0 1 0-84h583a42 42 0 0 1 0 84z" horiz-adv-x="1000" />

<glyph glyph-name="layers-slash" unicode="&#xebde;" d="M854 269l-14-8a42 42 0 0 1-15-57 42 42 0 0 1 36-21 42 42 0 0 1 21 6l14 9a42 42 0 0 1-41 71z m-369 316l15 9 292-167-74-42a42 42 0 0 1 21-77 42 42 0 0 1 21 5l136 79a42 42 0 0 1 0 72l-375 216a42 42 0 0 1-42 0l-35-20a42 42 0 0 1 41-72z m-330 170a42 42 0 0 1-60-60l152-151-143-83a42 42 0 0 1 0-73l375-216a45 45 0 0 1 21-6 47 47 0 0 1 21 6l62 36 61-60-144-84-354 206a42 42 0 0 1-42-73l375-217a42 42 0 0 1 42 0l184 107 140-142a42 42 0 0 1 60 0 42 42 0 0 1 0 60z m345-500l-292 170 100 58 214-214z" horiz-adv-x="1000" />

<glyph glyph-name="angry" unicode="&#xebdf;" d="M417 392a42 42 0 0 1 37 23 42 42 0 0 1-19 55l-83 42a42 42 0 1 1-37-74l83-42a39 39 0 0 1 19-4z m83 375a417 417 0 1 1 417-417 417 417 0 0 1-417 417z m0-750a333 333 0 1 0 333 333 333 333 0 0 0-333-333z m-152 194a42 42 0 0 1-5-58 42 42 0 0 1 59-5 157 157 0 0 0 196 0 42 42 0 0 1 27-10 42 42 0 0 1 27 73 242 242 0 0 1-304 0z m300 301l-83-42a42 42 0 0 1-19-55 42 42 0 0 1 37-23 39 39 0 0 1 19 4l83 42a42 42 0 0 1-37 74z" horiz-adv-x="1000" />

<glyph glyph-name="ear" unicode="&#xebe0;" d="M500 517a42 42 0 0 0 42-42 42 42 0 0 1 83 0 125 125 0 1 1-209-93c0 0 7-7 8-8a41 41 0 0 0 0-47 42 42 0 1 1 69-47 124 124 0 0 1-1 141 297 297 0 0 1-20 23 44 44 0 0 0-7 8 42 42 0 0 0 35 65z m0 250a292 292 0 0 1-282-367 42 42 0 0 1 81 21 208 208 0 1 0 409 54 213 213 0 0 0-29-107l-149-310a84 84 0 0 0-72-41 84 84 0 0 0-83 83 83 83 0 0 0 11 42 42 42 0 0 1-72 41 167 167 0 1 1 290-164l149 310a292 292 0 0 1-253 438z" horiz-adv-x="1000" />

<glyph glyph-name="desktop-slash" unicode="&#xebe1;" d="M444 600h306a42 42 0 0 0 42-42v-250a39 39 0 0 0-6-21 42 42 0 0 1 13-57 39 39 0 0 1 22-7 42 42 0 0 1 35 19 122 122 0 0 1 19 66v250a125 125 0 0 1-125 125h-306a42 42 0 0 1 0-83z m461-595l-661 660h0l-89 90a42 42 0 0 1-60-60l59-57a125 125 0 0 1-29-80v-250a125 125 0 0 1 125-125h208v-83h-166a42 42 0 0 1 0-83h416a42 42 0 0 1 39 27l98-99a42 42 0 0 1 60 0 42 42 0 0 1 0 60z m-655 262a42 42 0 0 0-42 41v250a42 42 0 0 0 5 20l312-311z m292-167v83h66l83-83z" horiz-adv-x="1000" />

<glyph glyph-name="text-strike-through" unicode="&#xebe2;" d="M625 308h-250a42 42 0 0 1 0-83h83v-83a42 42 0 0 1 84 0v83h83a42 42 0 0 1 0 83z m83 292h-416a42 42 0 0 1 0-83h166v-84a42 42 0 0 1 84 0v84h166a42 42 0 0 1 0 83z" horiz-adv-x="1000" />

<glyph glyph-name="bold" unicode="&#xebe3;" d="M688 454a146 146 0 0 1-146 146h-188a42 42 0 0 1-42-42v-416a42 42 0 0 1 42-42h188a145 145 0 0 1 101 250 146 146 0 0 1 45 104z m-146-271h-146v125h146a63 63 0 0 0 0-125z m0 209h-146v125h146a63 63 0 0 0 0-125z" horiz-adv-x="1000" />

<glyph glyph-name="text" unicode="&#xebe4;" d="M708 600h-416a42 42 0 0 1 0-83h166v-375a42 42 0 0 1 84 0v375h166a42 42 0 0 1 0 83z" horiz-adv-x="1000" />

<glyph glyph-name="assistive-listening-systems" unicode="&#xebe5;" d="M458 725a292 292 0 0 1-291-292 42 42 0 0 1 83 0 208 208 0 0 0 417 0 211 211 0 0 0-30-107l-148-309a83 83 0 0 0-72-42 83 83 0 0 0-84 83 42 42 0 0 1-83 0 167 167 0 0 1 167-166 167 167 0 0 1 146 86l148 310a289 289 0 0 1 39 145 292 292 0 0 1-292 292z m-291-500a42 42 0 1 1 41-42 42 42 0 0 1-41 42z m566 575a42 42 0 1 1-50-67 375 375 0 0 0 150-300 42 42 0 0 1 84 0 461 461 0 0 1-184 367z m-275-325a42 42 0 0 0 42-42 42 42 0 0 1 83 0 125 125 0 0 1-250 0 125 125 0 0 1 22-70 146 146 0 0 1 19-22l9-9a42 42 0 0 0 0-47 42 42 0 0 1 10-57 42 42 0 0 1 24-8 42 42 0 0 1 34 18 125 125 0 0 1 0 141 141 141 0 0 1-15 18l-6 5a57 57 0 0 0-6 8 42 42 0 0 0-7 23 42 42 0 0 0 41 42z m-166-250a42 42 0 1 1-42 42 42 42 0 0 1 42-42z" horiz-adv-x="1000" />

<glyph glyph-name="palette" unicode="&#xebe6;" d="M309 203a42 42 0 0 1 0-59 42 42 0 0 1 59 0 42 42 0 0 1 0 59 42 42 0 0 1-59 0z m0 353a42 42 0 0 1 0-58 42 42 0 0 1 59 0 42 42 0 0 1 0 58 42 42 0 0 1-59 0z m206-416a42 42 0 1 1 42-42 42 42 0 0 1-42 44z m-250 250a42 42 0 1 1 42-42 42 42 0 0 1-42 44z m250 250a42 42 0 1 1 42-42 42 42 0 0 1-42 44z m148-86a42 42 0 1 1 59 0 42 42 0 0 1-59 2z m262 0a458 458 0 1 1-327-656 161 161 0 0 1 104 69 175 175 0 0 1 26 133 235 235 0 0 0-4 42 208 208 0 0 0 125 190 160 160 0 0 1 86 93 167 167 0 0 1-10 130z m-70-101a79 79 0 0 0-42-46 292 292 0 0 1-173-265 304 304 0 0 1 6-59 90 90 0 0 0-13-68 75 75 0 0 0-50-34 363 363 0 0 0-68-6 375 375 0 0 0-375 387 377 377 0 0 0 354 363h21a375 375 0 0 0 336-208 83 83 0 0 0 4-64z m-340-61a42 42 0 1 1 42-42 42 42 0 0 1-42 42z" horiz-adv-x="1000" />

<glyph glyph-name="underline" unicode="&#xebe7;" d="M500 204a208 208 0 0 1 208 209v208a42 42 0 0 1-83 0v-208a125 125 0 0 0-250 0v208a42 42 0 0 1-83 0v-208a208 208 0 0 1 208-209z m208-83h-416a42 42 0 0 1 0-83h416a42 42 0 0 1 0 83z" horiz-adv-x="1000" />

<glyph glyph-name="text-fields" unicode="&#xebe8;" d="M667 600a42 42 0 0 1-42 42h-500a42 42 0 0 1 0-84h208v-458a42 42 0 0 1 84 0v458h208a42 42 0 0 1 42 42z m208-208h-250a42 42 0 0 1 0-84h83v-208a42 42 0 0 1 84 0v208h83a42 42 0 0 1 0 84z" horiz-adv-x="1000" />

<glyph glyph-name="arrow-down" unicode="&#xebe9;" d="M738 380a42 42 0 0 1-59 0l-137-138v316a42 42 0 0 1-84 0v-316l-137 138a42 42 0 0 1-59-60l208-208a42 42 0 0 1 14-9 39 39 0 0 1 32 0 42 42 0 0 1 14 9l208 208a42 42 0 0 1 0 60z" horiz-adv-x="1000" />

<glyph glyph-name="text-size" unicode="&#xebea;" d="M375 392h-250a42 42 0 0 1 0-84h83v-208a42 42 0 0 1 84 0v208h83a42 42 0 0 1 0 84z m500 250h-500a42 42 0 0 1 0-84h208v-458a42 42 0 0 1 84 0v458h208a42 42 0 0 1 0 84z" horiz-adv-x="1000" />

<glyph glyph-name="italic" unicode="&#xebeb;" d="M708 600h-250a42 42 0 0 1 0-83h64l-134-334h-96a42 42 0 0 1 0-83h250a42 42 0 0 1 0 83h-64l134 334h96a42 42 0 0 1 0 83z" horiz-adv-x="1000" />

<glyph glyph-name="right-to-left-text-direction" unicode="&#xebec;" d="M854 142h-608l54 53a42 42 0 0 1-59 60l-125-125a42 42 0 0 1-8-14 42 42 0 0 1 0-32 42 42 0 0 1 8-14l125-125a42 42 0 0 1 59 0 42 42 0 0 1 0 60l-54 53h608a42 42 0 0 1 0 84z m-375 291v-166a42 42 0 0 1 84 0v416h83v-416a42 42 0 0 1 83 0v416h42a42 42 0 0 1 0 84h-292a167 167 0 0 1 0-334z m0 250v-166a83 83 0 0 0 0 166z" horiz-adv-x="1000" />

<glyph glyph-name="sigma" unicode="&#xebed;" d="M667 183h-233l137 137a42 42 0 0 1 0 60l-137 137h233a42 42 0 0 1 0 83h-334a42 42 0 0 1-38-26 42 42 0 0 1 9-45l179-179-179-179a42 42 0 0 1-9-45 42 42 0 0 1 38-26h334a42 42 0 0 1 0 83z" horiz-adv-x="1000" />

<glyph glyph-name="12-plus" unicode="&#xebee;" d="M458 475a42 42 0 0 1 84 0 42 42 0 0 0 41 42h42a42 42 0 0 0 42-42v-42a42 42 0 0 0-42-41h-42a125 125 0 0 1-125-125v-125a42 42 0 0 1 42-42h208a42 42 0 0 1 0 83h-166v84a42 42 0 0 0 41 41h42a125 125 0 0 1 125 125v42a125 125 0 0 1-125 125h-42a125 125 0 0 1-125-125z m292 167h42v-42a42 42 0 0 1 83 0v42h42a42 42 0 0 1 0 83h-42v42a42 42 0 0 1-83 0v-42h-42a42 42 0 0 1 0-83z m-458-84v-416a42 42 0 0 1 83 0v416a42 42 0 0 1-83 0z m608-83a42 42 0 0 1-32-49 375 375 0 1 0-292 292 42 42 0 1 1 17 83 450 450 0 0 1-93 7 458 458 0 1 1 458-458 450 450 0 0 1-9 92 42 42 0 0 1-49 33z" horiz-adv-x="1000" />

<glyph glyph-name="left-to-right-text-direction" unicode="&#xebef;" d="M893 116a42 42 0 0 1-9 14l-125 125a42 42 0 0 1-59-60l54-53h-608a42 42 0 0 1 0-84h608l-54-53a42 42 0 0 1 0-60 42 42 0 0 1 59 0l125 125a42 42 0 0 1 9 14 42 42 0 0 1 0 32z m-539 317v-166a42 42 0 0 1 83 0v416h84v-416a42 42 0 0 1 83 0v416h42a42 42 0 0 1 0 84h-292a167 167 0 0 1 0-334z m0 250v-166a83 83 0 0 0 0 166z" horiz-adv-x="1000" />

<glyph glyph-name="10-plus" unicode="&#xebf0;" d="M750 642h42v-42a42 42 0 0 1 83 0v42h42a42 42 0 0 1 0 83h-42v42a42 42 0 0 1-83 0v-42h-42a42 42 0 0 1 0-83z m-292-167v-250a125 125 0 0 1 125-125h42a125 125 0 0 1 125 125v250a125 125 0 0 1-125 125h-42a125 125 0 0 1-125-125z m209 0v-250a42 42 0 0 0-42-42h-42a42 42 0 0 0-41 42v250a42 42 0 0 0 41 42h42a42 42 0 0 0 42-42z m233 0a42 42 0 0 1-32-49 375 375 0 1 0-292 292 42 42 0 1 1 17 83 450 450 0 0 1-93 7 458 458 0 1 1 458-458 450 450 0 0 1-9 92 42 42 0 0 1-49 33z m-608 83v-416a42 42 0 0 1 83 0v416a42 42 0 0 1-83 0z" horiz-adv-x="1000" />

<glyph glyph-name="16-plus" unicode="&#xebf1;" d="M750 642h42v-42a42 42 0 0 1 83 0v42h42a42 42 0 0 1 0 83h-42v42a42 42 0 0 1-83 0v-42h-42a42 42 0 0 1 0-83z m150-167a42 42 0 0 1-32-49 375 375 0 1 0-292 292 42 42 0 1 1 17 83 450 450 0 0 1-93 7 458 458 0 1 1 458-458 450 450 0 0 1-9 92 42 42 0 0 1-49 33z m-608 83v-416a42 42 0 0 1 83 0v416a42 42 0 0 1-83 0z m166-83v-250a125 125 0 0 1 125-125h42a125 125 0 0 1 125 125v42a125 125 0 0 1-125 125h-83v83a42 42 0 0 0 41 42h42a42 42 0 0 0 42-42 42 42 0 0 1 83 0 125 125 0 0 1-125 125h-42a125 125 0 0 1-125-125z m167-167a42 42 0 0 0 42-41v-42a42 42 0 0 0-42-42h-42a42 42 0 0 0-41 42v83z" horiz-adv-x="1000" />

<glyph glyph-name="13-plus" unicode="&#xebf2;" d="M750 642h42v-42a42 42 0 0 1 83 0v42h42a42 42 0 0 1 0 83h-42v42a42 42 0 0 1-83 0v-42h-42a42 42 0 0 1 0-83z m-292-167a42 42 0 0 1 84 0 42 42 0 0 0 41 42h42a42 42 0 0 0 42-42v-42a42 42 0 0 0-42-41h-21a42 42 0 0 1 0-84h21a42 42 0 0 0 42-41v-42a42 42 0 0 0-42-42h-42a42 42 0 0 0-41 42 42 42 0 0 1-84 0 125 125 0 0 1 125-125h42a125 125 0 0 1 125 125v42a125 125 0 0 1-33 83 125 125 0 0 1 33 83v42a125 125 0 0 1-125 125h-42a125 125 0 0 1-125-125z m-166 83v-416a42 42 0 0 1 83 0v416a42 42 0 0 1-83 0z m608-83a42 42 0 0 1-32-49 375 375 0 1 0-292 292 42 42 0 1 1 17 83 450 450 0 0 1-93 7 458 458 0 1 1 458-458 450 450 0 0 1-9 92 42 42 0 0 1-49 33z" horiz-adv-x="1000" />

<glyph glyph-name="21-plus" unicode="&#xebf3;" d="M708 100a42 42 0 0 1 42 42v416a42 42 0 0 1-83 0v-416a42 42 0 0 1 41-42z m42 542h42v-42a42 42 0 0 1 83 0v42h42a42 42 0 0 1 0 83h-42v42a42 42 0 0 1-83 0v-42h-42a42 42 0 0 1 0-83z m150-167a42 42 0 0 1-32-49 375 375 0 1 0-292 292 42 42 0 1 1 17 83 450 450 0 0 1-93 7 458 458 0 1 1 458-458 450 450 0 0 1-9 92 42 42 0 0 1-49 33z m-483-167h41a125 125 0 0 1 125 125v42a125 125 0 0 1-125 125h-41a125 125 0 0 1-125-125 42 42 0 0 1 83 0 42 42 0 0 0 42 42h41a42 42 0 0 0 42-42v-42a42 42 0 0 0-42-41h-41a125 125 0 0 1-125-125v-125a42 42 0 0 1 41-42h209a42 42 0 0 1 0 83h-167v84a42 42 0 0 0 42 41z" horiz-adv-x="1000" />

<glyph glyph-name="17-plus" unicode="&#xebf4;" d="M458 558v-83a42 42 0 0 1 84 0v42h116l-75-367a42 42 0 0 1 34-50l8 0a42 42 0 0 1 42 33l83 417a42 42 0 0 1-9 35 42 42 0 0 1-33 15h-208a42 42 0 0 1-42-42z m292 84h42v-42a42 42 0 0 1 83 0v42h42a42 42 0 0 1 0 83h-42v42a42 42 0 0 1-83 0v-42h-42a42 42 0 0 1 0-83z m-458-84v-416a42 42 0 0 1 83 0v416a42 42 0 0 1-83 0z m608-83a42 42 0 0 1-32-49 375 375 0 1 0-292 292 42 42 0 1 1 17 83 450 450 0 0 1-93 7 458 458 0 1 1 458-458 450 450 0 0 1-9 92 42 42 0 0 1-49 33z" horiz-adv-x="1000" />

<glyph glyph-name="6-plus" unicode="&#xebf5;" d="M750 642h42v-42a42 42 0 0 1 83 0v42h42a42 42 0 0 1 0 83h-42v42a42 42 0 0 1-83 0v-42h-42a42 42 0 0 1 0-83z m-271-125h42a42 42 0 0 0 41-42 42 42 0 0 1 84 0 125 125 0 0 1-125 125h-42a125 125 0 0 1-125-125v-250a125 125 0 0 1 125-125h42a125 125 0 0 1 125 125v42a125 125 0 0 1-125 125h-84v83a42 42 0 0 0 42 42z m42-209a42 42 0 0 0 41-41v-42a42 42 0 0 0-41-42h-42a42 42 0 0 0-42 42v83z m379 167a42 42 0 0 1-33-49 375 375 0 1 0-291 292 42 42 0 1 1 16 83 450 450 0 0 1-92 7 458 458 0 1 1 458-458 450 450 0 0 1-9 92 42 42 0 0 1-49 33z" horiz-adv-x="1000" />

<glyph glyph-name="0-plus" unicode="&#xebf6;" d="M750 642h42v-42a42 42 0 0 1 83 0v42h42a42 42 0 0 1 0 83h-42v42a42 42 0 0 1-83 0v-42h-42a42 42 0 0 1 0-83z m-229-42h-42a125 125 0 0 1-125-125v-250a125 125 0 0 1 125-125h42a125 125 0 0 1 125 125v250a125 125 0 0 1-125 125z m41-375a42 42 0 0 0-41-42h-42a42 42 0 0 0-42 42v250a42 42 0 0 0 42 42h42a42 42 0 0 0 41-42z m338 250a42 42 0 0 1-33-49 375 375 0 1 0-291 292 42 42 0 1 1 16 83 450 450 0 0 1-92 7 458 458 0 1 1 458-458 450 450 0 0 1-9 92 42 42 0 0 1-49 33z" horiz-adv-x="1000" />

<glyph glyph-name="3-plus" unicode="&#xebf7;" d="M750 642h42v-42a42 42 0 0 1 83 0v42h42a42 42 0 0 1 0 83h-42v42a42 42 0 0 1-83 0v-42h-42a42 42 0 0 1 0-83z m-104-167a125 125 0 0 1-125 125h-42a125 125 0 0 1-125-125 42 42 0 0 1 83 0 42 42 0 0 0 42 42h42a42 42 0 0 0 41-42v-42a42 42 0 0 0-41-41h-21a42 42 0 0 1 0-84h21a42 42 0 0 0 42-41v-42a42 42 0 0 0-42-42h-42a42 42 0 0 0-41 42 42 42 0 0 1-84 0 125 125 0 0 1 125-125h42a125 125 0 0 1 125 125v42a125 125 0 0 1-33 83 125 125 0 0 1 33 83z m254 0a42 42 0 0 1-33-49 375 375 0 1 0-291 292 42 42 0 1 1 16 83 450 450 0 0 1-92 7 458 458 0 1 1 458-458 450 450 0 0 1-9 92 42 42 0 0 1-49 33z" horiz-adv-x="1000" />

<glyph glyph-name="eye-slash" unicode="&#xebf8;" d="M456 597a289 289 0 0 0 44 3c133 0 257-95 330-250a635 635 0 0 0-38-68 42 42 0 0 1-7-23 42 42 0 0 1 78-21 657 657 0 0 1 50 96 42 42 0 0 1 0 33c-84 195-242 316-413 316a324 324 0 0 1-58-5 42 42 0 1 1 14-83z m-301 158a42 42 0 0 1-60-60l130-128a609 609 0 0 1-138-200 42 42 0 0 1 0-34c84-195 242-316 413-316a386 386 0 0 1 210 64l135-136a42 42 0 0 1 60 0 42 42 0 0 1 0 60z m265-383l102-102a75 75 0 0 0-22-3 83 83 0 0 0-83 83 75 75 0 0 0 3 22z m80-272c-132 0-257 95-329 250a504 504 0 0 0 112 158l74-75a167 167 0 0 1 226-226l67-65a302 302 0 0 0-150-42z" horiz-adv-x="1000" />

<glyph glyph-name="archway" unicode="&#xebf9;" d="M917 17h-42v500h42a42 42 0 0 1 0 83h-42v125a42 42 0 0 1-42 42h-666a42 42 0 0 1-42-42v-125h-42a42 42 0 0 1 0-83h42v-500h-42a42 42 0 0 1 0-84h834a42 42 0 0 1 0 84z m-292 0h-250v147a259 259 0 0 0 125 222 259 259 0 0 0 125-222z m167 0h-84v147a340 340 0 0 1-189 306 42 42 0 0 1-38 0 340 340 0 0 1-189-306v-147h-84v500h584z m0 583h-584v83h584z" horiz-adv-x="1000" />

<glyph glyph-name="18-plus" unicode="&#xebfa;" d="M750 642h42v-42a42 42 0 0 1 83 0v42h42a42 42 0 0 1 0 83h-42v42a42 42 0 0 1-83 0v-42h-42a42 42 0 0 1 0-83z m-458-84v-416a42 42 0 0 1 83 0v416a42 42 0 0 1-83 0z m608-83a42 42 0 0 1-32-49 375 375 0 1 0-292 292 42 42 0 1 1 17 83 450 450 0 0 1-93 7 458 458 0 1 1 458-458 450 450 0 0 1-9 92 42 42 0 0 1-49 33z m-442 0v-42a125 125 0 0 1 33-83 125 125 0 0 1-33-83v-42a125 125 0 0 1 125-125h42a125 125 0 0 1 125 125v42a125 125 0 0 1-33 83 125 125 0 0 1 33 83v42a125 125 0 0 1-125 125h-42a125 125 0 0 1-125-125z m209-250a42 42 0 0 0-42-42h-42a42 42 0 0 0-41 42v42a42 42 0 0 0 41 41h42a42 42 0 0 0 42-41z m0 250v-42a42 42 0 0 0-42-41h-42a42 42 0 0 0-41 41v42a42 42 0 0 0 41 42h42a42 42 0 0 0 42-42z" horiz-adv-x="1000" />

<glyph glyph-name="robot" unicode="&#xebfb;" d="M375 225a42 42 0 1 1 42-42 42 42 0 0 1-42 42z m-292 42a42 42 0 0 1-41-42v-83a42 42 0 0 1 83 0v83a42 42 0 0 1-42 42z m834 0a42 42 0 0 1-42-42v-83a42 42 0 0 1 83 0v83a42 42 0 0 1-41 42z m-209 291h-166v54a83 83 0 0 1 41 71 83 83 0 0 1-166 0 83 83 0 0 1 41-71v-54h-166a125 125 0 0 1-125-125v-375a125 125 0 0 1 125-125h416a125 125 0 0 1 125 125v375a125 125 0 0 1-125 125z m-136-83l-21-83h-102l-21 83z m178-417a42 42 0 0 0-42-41h-416a42 42 0 0 0-42 41v375a42 42 0 0 0 42 42h51l32-135a42 42 0 0 1 42-32h166a42 42 0 0 1 42 32l32 135h51a42 42 0 0 0 42-42z m-125 167a42 42 0 1 1 42-42 42 42 0 0 1-42 42z" horiz-adv-x="1000" />

<glyph glyph-name="selfie" unicode="&#xebfc;" d="M667 767h-334a125 125 0 0 1-125-125v-584a125 125 0 0 1 125-125h334a125 125 0 0 1 125 125v584a125 125 0 0 1-125 125z m41-709a42 42 0 0 0-41-41h-334a42 42 0 0 0-41 41v42h416z m-208 209a125 125 0 0 0 117-84h-235a125 125 0 0 0 118 84z m-42 125a42 42 0 1 0 42-42 42 42 0 0 0-42 42z m250-209h-4a208 208 0 0 1-101 139 125 125 0 0 1 22 70 125 125 0 0 1-250 0 125 125 0 0 1 22-70 208 208 0 0 1-101-139h-4v459a42 42 0 0 0 41 41h334a42 42 0 0 0 41-41z m-208 459a42 42 0 1 1 42-42 42 42 0 0 1-42 42z" horiz-adv-x="1000" />

<glyph glyph-name="bag-slash" unicode="&#xebfd;" d="M792 600h-125v42a83 83 0 0 1-84 83h-166a78 78 0 0 1-26-4 42 42 0 0 1-26-53 42 42 0 0 1 52-26h166v-42h-55a42 42 0 0 1 0-83h264a42 42 0 0 0 41-42v-53l-107-36a42 42 0 0 1-26-53 42 42 0 0 1 40-28 50 50 0 0 1 13 2l80 27v-123a42 42 0 1 1 84 0v264a125 125 0 0 1-125 125z m-637 155a42 42 0 0 1-60-60l98-95a125 125 0 0 1-110-125v-375a125 125 0 0 1 125-125h584a128 128 0 0 1 22 2l31-32a42 42 0 0 1 60 0 42 42 0 0 1 0 60z m12-280a42 42 0 0 0 41 42h67l166-167h-59l-215 72z m41-417a42 42 0 0 0-41 42v234l195-67a50 50 0 0 1 13 0h150l208-209z" horiz-adv-x="1000" />

<glyph glyph-name="instagram" unicode="&#xebfe;" d="M723 623h0a50 50 0 1 1 50-50 50 50 0 0 1-50 50z m191-101a316 316 0 0 1-19 101 206 206 0 0 1-48 74 196 196 0 0 1-74 48 304 304 0 0 1-101 19c-44 3-59 3-172 3s-127 0-172-3a304 304 0 0 1-101-19 199 199 0 0 1-74-48 196 196 0 0 1-48-74 304 304 0 0 1-19-101c-3-44-3-59-3-172s0-127 3-172a304 304 0 0 1 19-101 196 196 0 0 1 48-74 199 199 0 0 1 74-48 304 304 0 0 1 101-19c44-3 59-3 172-3s128 0 172 3a304 304 0 0 1 101 19 196 196 0 0 1 74 48 202 202 0 0 1 48 74 316 316 0 0 1 19 101c0 45 3 59 3 172s0 128-3 172z m-75-339a234 234 0 0 0-14-77 128 128 0 0 0-31-48 133 133 0 0 0-48-31 234 234 0 0 0-78-14c-41-3-57-3-166-3s-125 0-167 3a239 239 0 0 0-81 12 136 136 0 0 0-46 31 125 125 0 0 0-31 48 231 231 0 0 0-16 79c0 42-3 57-3 167s0 125 3 167a231 231 0 0 0 14 79 125 125 0 0 0 33 46 131 131 0 0 0 46 33 239 239 0 0 0 79 14c42 0 57 3 167 3s125 0 167-3a234 234 0 0 0 77-14 128 128 0 0 0 50-33 128 128 0 0 0 31-46 234 234 0 0 0 14-79c2-42 3-57 3-167s-1-125-3-167z m-339 381a214 214 0 1 1 214-214 213 213 0 0 1-214 214z m0-353a139 139 0 1 0 139 139 139 139 0 0 0-139-139z" horiz-adv-x="1000" />

<glyph glyph-name="line" unicode="&#xebff;" d="M574 456h0a16 16 0 0 1-16-16v-70l-58 78a17 17 0 0 1-14 8h0a16 16 0 0 1-16-16v-118a16 16 0 0 1 16-16h0a16 16 0 0 1 16 16v70l58-80 0 0h0a11 11 0 0 1 6-4 13 13 0 0 1 6 0h0a14 14 0 0 1 11 0l4 3h0a16 16 0 0 1 5 12v117a16 16 0 0 1-18 16z m-191-117h-44v101a16 16 0 0 1-16 16h0a16 16 0 0 1-15-16v-118a16 16 0 0 1 15-16h60a16 16 0 0 1 17 16v0a16 16 0 0 1-17 17z m47 117h0a16 16 0 0 1-17-16v-118a16 16 0 0 1 17-16h0a16 16 0 0 1 15 16v118a16 16 0 0 1-15 16z m316 311h-492a171 171 0 0 1-171-171v-492a171 171 0 0 1 171-171h492a171 171 0 0 1 171 171v492a171 171 0 0 1-171 171z m13-512a65 65 0 0 0-5-7h0a229 229 0 0 0-34-33c-83-78-223-172-242-157s27 73-22 83a42 42 0 0 0-10 0h0c-143 20-250 121-250 241 0 136 137 245 306 245s306-109 306-245a208 208 0 0 0-49-127z m-71 200h-63a16 16 0 0 1-16-15v-119a16 16 0 0 1 16-16h62a16 16 0 0 1 16 16v0a16 16 0 0 1-16 16h-43v25h44a16 16 0 0 1 16 16v0a16 16 0 0 1-16 16h-44v26h44a16 16 0 0 1 16 15v0a16 16 0 0 1-16 20z" horiz-adv-x="1000" />

<glyph glyph-name="facebook-messenger" unicode="&#xec00;" d="M500 767a402 402 0 0 1-417-404 396 396 0 0 1 131-300 34 34 0 0 0 11-23l0-74a34 34 0 0 1 48-30l83 37a31 31 0 0 0 22 0 458 458 0 0 1 121-16 404 404 0 1 1 1 810z m250-311l-122-194a63 63 0 0 0-90-17l-98 73a25 25 0 0 1-30 0l-132-100a20 20 0 0 0-28 26l122 194a63 63 0 0 0 91 17l97-73a25 25 0 0 1 30 0l132 100a20 20 0 0 0 28-26z" horiz-adv-x="1000" />

<glyph glyph-name="facebook-f" unicode="&#xec01;" d="M630 628h78v133a1088 1088 0 0 1-114 6c-113 0-191-69-191-196v-109h-128v-149h128v-380h154v380h127l19 149h-146v94c0 44 11 72 73 72z" horiz-adv-x="1000" />
</font>
</defs>
</svg>
